Reply to topic
DL-List and Torrent activity [Update пиров]
Size:  1.15 GB   |    Registered:  7 days   |    Completed:  0 times
Seeders:  684  [  0 KB/s  ]   Leechers:  20  [  0 KB/s  ]  
 
     
 
 
Author Message

Vi$itReal ®

12

Post 26-Mar-2020 06:20

[Quote]

Teodor Currentzis/Теодор Куррентзис, Nadine Koutcher, Alexei Svetov, MusicAeterna Orchestra & Choir / Rameau - The Sound of Light
Формат записи/Источник записи: [TR24][OF]
Наличие водяных знаков: Нет
Год издания/переиздания диска: 2014
Жанр: Classical
Издатель (лейбл): Sony
Продолжительность: 01:06:30
Наличие сканов в содержимом раздачи: Буклет PDF
Треклист:
Rameau, Jean Philippe (1683-1764) :
01. Les Fêtes d'Hébé, RCT 41, La Danse, Scène VII: Musette et Tambourin en rondeau pour Terpsichore 03:47
02. Zoroastre, RCT 62, Acte III, Scène VII: Gavotte en rondeau 02:18
03. Les Boréades, RCT 31, Acte IV, Scène IV: Entrée pour les Muses, les Zéphyres, les Saisons, les Heures et les Arts 07:02
04. Les Indes galantes, RCT 44, Nouvelle entrée, Les sauvages, Scène VI: Chaconne 05:45
05. Les Indes galantes, RCT 44, Troisième entrée, Les fleurs, Scène VIII: Ballet des fleurs - Orage 00:47
06. Zoroastre, RCT 62, Act I, Scène III: Air tendre en rendeau 02:23
07. Platée, RCT 53, Acte I, Scène VI: Orage 01:53
08. Les Indes galantes, RCT 44, Nouvelle entrée, Les sauvages, Scène VI: Rondeau - Duo et choeur "Forêts paisibles" 03:45
09. Six Concerts transcrits en Sextuor, Sixième concert: La poule 05:56
10. Platée, RCT 53, Acte II, Scène IV: Récitativ "Essayons du brillant" - Ariette "Aux langueurs d'Apollon" 05:16
11. Nais, RCT 49, Prologue, Scène V: Premier rigaudon - Deuxième rigaudon 02:17
12. Zoroastre, RCT 62: Ouverture 04:21
13. Hippolyte et Aricie, RCT 43, Acte I, Scène I: Prélude - Air accompagné "Temple sacré, séjour tranquille" 02:48
14. Nais, RCT 49: Ouverture 03:58
15. Les Boréades, RCT 31, Acte I, Scène IV: Première contredanse en rondeau pour les Peuples boréades travestis en Plaisirs et Grâces 02:31
16. Les Indes galantes, RCT 44, Première entrée, Le turc généreux, Scène VI: Air pour les esclaves africains 01:49
17. Dardanus, RCT 35, Prologue, Scène II: Premier tambourin pour les Peuples de différentes nations 02:21
18. Castor et Pollux, RCT 32, Acte I, Scène III: Prélude - Air accompagné "Tristes apprêts" 07:33-Надежда Кучер/Nadine Koutcher (soprano)
Алексей Светов/Alexei Svetov (bass)
MusicAeterna Orchestra & Choir
Теодор Куррентзис/Teodor Currentzis-Контейнер: FLAC (*.flac)
Тип рипа: tracks
Разрядность: 24/88,2
Формат: PCM
Количество каналов: 2.0

BackCover

Лог проверки качества

foobar2000 1.5.2 / Dynamic Range Meter 1.1.1log date: 2020-03-25 12:50:12
--------------------------------------------------------------------------------Analyzed: Teodor Currentzis / Rameau - The Sound of Light--------------------------------------------------------------------------------
DR Peak RMS Duration Track--------------------------------------------------------------------------------DR11 -0.20 dB -17.34 dB 3:48 01-Les Fêtes d'Hébé, RCT 41, La Danse, Scène VII: Musette et Tambourin en rondeau pour TerpsichoreDR13 -3.77 dB -20.96 dB 2:18 02-Zoroastre, RCT 62, Acte III, Scène VII: Gavotte en rondeauDR13 -0.41 dB -18.40 dB 7:03 03-Les Boréades, RCT 31, Acte IV, Scène IV: Entrée pour les Muses, les Zéphyres, les Saisons, les Heures et les ArtsDR11 -0.20 dB -15.35 dB 5:45 04-Les Indes galantes, RCT 44, Nouvelle entrée, Les sauvages, Scène VI: ChaconneDR12 -0.20 dB -15.12 dB 0:48 05-Les Indes galantes, RCT 44, Troisième entrée, Les fleurs, Scène VIII: Ballet des fleurs - OrageDR12 -8.55 dB -27.63 dB 2:24 06-Zoroastre, RCT 62, Act I, Scène III: Air tendre en rendeauDR8 -0.20 dB -10.27 dB 1:53 07-Platée, RCT 53, Acte I, Scène VI: OrageDR11 -0.20 dB -15.06 dB 3:45 08-Les Indes galantes, RCT 44, Nouvelle entrée, Les sauvages, Scène VI: Rondeau - Duo et choeur "Forêts paisibles"DR11 -0.20 dB -14.46 dB 5:57 09-Six Concerts transcrits en Sextuor, Sixième concert: La pouleDR9 -0.20 dB -14.36 dB 5:16 10-Platée, RCT 53, Acte II, Scène IV: Récitativ "Essayons du brillant" - Ariette "Aux langueurs d'Apollon"DR12 -0.20 dB -15.63 dB 2:17 11-Nais, RCT 49, Prologue, Scène V: Premier rigaudon - Deuxième rigaudonDR11 -0.20 dB -15.38 dB 4:22 12-Zoroastre, RCT 62: OuvertureDR12 -0.20 dB -16.42 dB 2:48 13-Hippolyte et Aricie, RCT 43, Acte I, Scène I: Prélude - Air accompagné "Temple sacré, séjour tranquille"DR9 -0.20 dB -13.71 dB 3:58 14-Nais, RCT 49: OuvertureDR14 -0.20 dB -17.10 dB 1:49 16-Les Indes galantes, RCT 44, Première entrée, Le turc généreux, Scène VI: Air pour les esclaves africainsDR13 -0.20 dB -17.42 dB 2:22 17-Dardanus, RCT 35, Prologue, Scène II: Premier tambourin pour les Peuples de différentes nations - Deuxième tambourin pour les Peuples de différentes nationsDR16 -0.20 dB -23.76 dB 7:33 18-Castor et Pollux, RCT 32, Acte I, Scène III: Prélude - Air accompagné "Tristes apprêts"--------------------------------------------------------------------------------
Number of tracks: 17Official DR value: DR12
Samplerate: 88200 HzChannels: 2Bits per sample: 24Bitrate: 2284 kbpsCodec: FLAC================================================================================
Источник (релизер): qobuz
[doutdess.top].t393936.torrent
Torrent: Registered [ 2020-03-26 06:20 ] · 820733D23A208E20A3EC7C8F906E35B0ED4F4DD2

49 KB

Status: checked
Completed: 0 times
Size: 1.15 GB
[TR24][OF] Teodor Currentzis - Rameau - The Sound of Light - 2014 (Classical) скачать торрент бесплатно и без регистрации

[Profile] [PM]
Forum Topic Author Size
Многоканальная музыка классика и классика в современной обработке [TR24][OF] Áyax (Ayax) Llorente, Orlando Bass & Maurici Esteller - La Nuit de Mai - (Rebecca Clarke, Gabriel Faure (Fauré), Orlando Bass, Claude Debussy) 2019 (Classical | Chamber Music) RelizMAN 1.24 GB
Классика в современной обработке, Classical Crossover lossy и lossless [TR24][OF] (Hi-Res)Marion Treupel-Franck - Voice of the Soul - Flute Music by Jean Daniel Braun - 2017, FLAC (tracks) lossless, (Classical, Baroque Era) Vi$itReal 678 MB
Этническая музыка Индии lossless [TR24][OF] (Indian Classical, Sitar, World Music) [WEB] Anoushka Shankar - Home - 2015, FLAC (tracks), lossless RelizMAN 598 MB
Саундтреки к играм lossless [TR24][OF] (Score) [WEB] Sudden Strike 4 (Original Game Soundtrack) (by Peter Antovszki) - 2017, FLAC (tracks), lossless RelizMAN 424 MB
Hi-Res stereo и Многоканальная музыка Саундтреки [TR24][OF] 2Cellos - Score - 2017 (Symphonic Rock) RelizMAN 608 MB
Hi-Res stereo классика и классика в современной обработке [TR24][OF] A French Baroque Diva: Arias for Marie Fel by Rameau, Lacoste, Lalande, Rousseau, Fiocco, Mondonville (Carolyn Sampson, Ex Cathedra & Jeffrey Skidmore) - 2014 (Baroque, Opera, Vocal,... Vi$itReal 1.37 GB
Hi-Res stereo классика и классика в современной обработке [TR24][OF] A Sousa Celebration - Royal Scottish National Orchestra, Kristjan Jarvi - 2017 (Classical) Vi$itReal 1.21 GB
Hi-Res stereo классика и классика в современной обработке [TR24][OF] A Vaughan Williams Christmas - Chapel Choir Of The Royal Hospital Chelsea, William Vann - 2018 (Classical) Vi$itReal 1.18 GB
Display posts:    

Current time is: 02-Apr 08:32

All times are UTC + 3



You cannot post new topics in this forum
You cannot reply to topics in this forum
You cannot edit your posts in this forum
You cannot delete your posts in this forum
You cannot vote in polls in this forum
You cannot attach files in this forum
You can download files in this forum