Reply to topic
DL-List and Torrent activity [Update пиров]
Size:  2.9 GB   |    Registered:  4 days   |    Completed:  0 times
Seeders:  919  [  0 KB/s  ]   Leechers:  54  [  0 KB/s  ]  
 
     
 
 
Author Message

Vi$itReal ®

12

Post 26-Mar-2020 07:25

[Quote]

Stephen Cleobury, Academy of Ancient Music / Bach - St. Matthew Passion
Формат записи/Источник записи: [TR24][OF]
Наличие водяных знаков: Нет
Год издания/переиздания диска: 2020
Жанр: Classical
Издатель (лейбл): Kings College
Продолжительность: 02:43:02
Наличие сканов в содержимом раздачи: Буклет PDF

Треклист

Bach, Johann Sebastian (1685-1750) :
St Matthew Passion, BWV244 2:43:02
01. No. 1. Kommt. ihr Töchter. helft mir klagen 6:58
02. No. 2. Da Jesus diese Rede vollendet hatte 0:37
03. No. 3. Herzliebster Jesu. was hast du verbrochen 0:39
04. No. 4. Da versammleten sich die Hohenpriester 3:03
05. No. 5. Du lieber Heiland du 0:51
06. No. 6. Buß und Reu 4:09
07. No. 7. Da ging hin der Zwölfen einer 0:39
08. No. 8. Blute nur. du liebes Herz 4:36
09. No. 9. Aber am ersten Tage der süßen Brot 2:13
10. No. 10. Ich bins. ich sollte büßen 0:45
11. No. 11. Er antwortete und sprach 3:00
12. No. 12. Wiewohl mein Herz in Tränen schwimmt 1:26
13. No. 13. Ich will dir mein Herze schenken 3:45
14. No. 14. Und da sie den Lobgesang gesprochen hatten 1:05
15. No. 15. Erkenne mich. mein Hüter 0:54
16. No. 16. Petrus aber antwortete und sprach zu ihm 1:06
17. No. 17. Ich will hier bei dir stehen 0:56
18. No. 18. Da kam Jesus mit ihnen zu einem Hofe 1:36
19. No. 19. O Schmerz! Hier zittert das gequälte Herz 2:01
20. No. 20. Ich will bei meinem Jesu wachen 5:04
21. No. 21. Und ging hin ein wenig 0:40
22. No. 22. Der Heiland fällt vor seinem Vater nieder 0:56
23. No. 23. Gerne will ich mich bequemen 4:08
24. No. 24. Und er kam zu seinen Jüngern 1:10
25. No. 25. Was mein Gott will. das g'scheh allzeit 1:00
26. No. 26. Und er kam und fand sie aber schlafend 2:19
27. No. 27. So ist mein Jesus nun gefangen 4:32
28. No. 28. Und siehe. einer aus denen 2:10
29. No. 29. O Mensch. bewein dein Sünde groß 6:12
30. No. 30, Ach, nun ist mein Jesus hin 3:50
31. No. 31. Die aber Jesum gegriffen hatten 1:08
32. No. 32. Mir hat die Welt trüglich gericht' 0:40
33. No. 33. Und wiewohl viel falsche Zeugen herzutraten 1:18
34. No. 34. Mein Jesus schweigt 1:04
35. No. 35. Geduld! Wenn mich falsche Zungen stechen 3:32
36. No. 36. Und der Hohepriester antwortete 2:03
37. No. 37. Wer hat dich so geschlagen 0:44
38. No. 38. Petrus aber saß draußen im Palast 2:31
39. No. 39. Erbarme dich. mein Gott 6:20
40. No. 40. Bin ich gleich von dir gewichen 0:57
41. No. 41. Des Morgens aber hielten alle Hohepriester 1:55
42. No. 42. Gebt mir meinen Jesum wieder 2:52
43. No. 43. Sie hielten aber einen Rat 2:03
44. No. 44. Befiehl du deine Wege 0:55
45. No. 45. Auf das Fest aber hatte der Landpfleger Gewohnheit 2:28
46. No. 46. Wie wunderbarlich ist doch diese Strafe 0:39
47. No. 47. Der Landpfleger sagte 0:14
48. No. 48. Er hat uns allen wohlgetan 1:10
49. No. 49. Aus Liebe will mein Heiland sterben 5:07
50. No. 50. Sie schrieen aber noch mehr 2:04
51. No. 51. Erbarm es Gott 0:58
52. No. 52. Können Tränen meiner Wangen 6:36
53. No. 53. Da nahmen die Kriegsknechte des Landpflegers 1:15
54. No. 54. O Haupt voll Blut und Wunden 1:57
55. No. 55. Und da sie ihn verspottet hatten 1:09
56. No. 56. Ja freilich will in uns das Fleisch und Blut 0:40
57. No. 57. Komm. süßes Kreuz. so will ich sagen 5:13
58. No. 58. Und da sie an die Stätte kamen 3:43
59. No. 59. Ach Golgatha. unselges Golgatha 1:24
60. No. 60. Sehet. Jesus hat die Hand 3:29
61. No. 61. Und von der sechsten Stunde an 2:22
62. No. 62. Wenn ich einmal soll scheiden 1:06
63. No. 63. Und siehe da. der Vorhang im Tempel zerriß 2:42
64. No. 64. Am Abend. da es kühle war 1:48
65. No. 65. Mache dich. mein Herze. rein 6:42
66. No. 66. Und Joseph nahm den Leib 2:49
67. No. 67. Nun ist der Herr zur Ruh gebracht 1:42
68. No. 68. Wir setzen uns mit Tränen nieder 5:23
-James Gilchrist (Evangelist), Matthew Rose (Jesus), Sophie Bevan (soprano)
David Allsopp (countertenor), Mark Le Brocq (tenor), William Gaunt (bass)
Academy of Ancient Music, Choir of King's College Cambridge, King's College School Choir, Stephen Cleobury-Контейнер: FLAC (*.flac)
Тип рипа: tracks
Разрядность: 24/96
Формат: PCM
Количество каналов: 2.0

Лог проверки качества

foobar2000 1.5.2 / Dynamic Range Meter 1.1.1log date: 2020-03-26 11:50:12
--------------------------------------------------------------------------------Analyzed: Choir of King's College, Cambridge, Academy of Ancient Music & Stephen Cleobury / Bach: St. Matthew Passion--------------------------------------------------------------------------------
DR Peak RMS Duration Track--------------------------------------------------------------------------------DR13 -0.11 dB -15.86 dB 6:58 01-St. Matthew Passion, BWV 244, Pt. 1: No. 1. Kommt. ihr Töchter. helft mir klagenDR11 -0.12 dB -21.71 dB 0:38 02-St. Matthew Passion, BWV 244, Pt. 1: No. 2. Da Jesus diese Rede vollendet hatteDR10 -1.05 dB -15.57 dB 0:40 03-St. Matthew Passion, BWV 244, Pt. 1: No. 3. Herzliebster Jesu. was hast du verbrochenDR13 -0.62 dB -19.98 dB 3:04 04-St. Matthew Passion, BWV 244, Pt. 1: No. 4. Da versammleten sich die HohenpriesterDR10 -6.19 dB -23.34 dB 0:52 05-St. Matthew Passion, BWV 244, Pt. 1: No. 5. Du lieber Heiland duDR14 -3.92 dB -22.51 dB 4:10 06-St. Matthew Passion, BWV 244, Pt. 1: No. 6. Buß und ReuDR12 -8.07 dB -24.67 dB 0:40 07-St. Matthew Passion, BWV 244, Pt. 1: No. 7. Da ging hin der Zwölfen einerDR13 -2.63 dB -21.63 dB 4:37 08-St. Matthew Passion, BWV 244, Pt. 1: No. 8. Blute nur. du liebes HerzDR13 -1.43 dB -21.42 dB 2:14 09-St. Matthew Passion, BWV 244, Pt. 1: No. 9. Aber am ersten Tage der süßen BrotDR11 -3.85 dB -18.07 dB 0:45 10-St. Matthew Passion, BWV 244, Pt. 1: No. 10. Ich bins. ich sollte büßenDR14 -1.66 dB -21.42 dB 3:01 11-St. Matthew Passion, BWV 244, Pt. 1: No. 11. Er antwortete und sprachDR10 -0.11 dB -18.77 dB 1:27 12-St. Matthew Passion, BWV 244, Pt. 1: No. 12. Wiewohl mein Herz in Tränen schwimmtDR13 -2.77 dB -21.52 dB 3:46 13-St. Matthew Passion, BWV 244, Pt. 1: No. 13. Ich will dir mein Herze schenkenDR14 -1.74 dB -22.26 dB 1:05 14-St. Matthew Passion, BWV 244, Pt. 1: No. 14. Und da sie den Lobgesang gesprochen hattenDR10 -3.41 dB -17.28 dB 0:55 15-St. Matthew Passion, BWV 244, Pt. 1: No. 15. Erkenne mich. mein HüterDR13 -2.56 dB -22.30 dB 1:06 16-St. Matthew Passion, BWV 244, Pt. 1: No. 16. Petrus aber antwortete und sprach zu ihmDR11 -4.23 dB -18.17 dB 0:57 17-St. Matthew Passion, BWV 244, Pt. 1: No. 17. Ich will hier bei dir stehenDR14 -4.66 dB -24.93 dB 1:36 18-St. Matthew Passion, BWV 244, Pt. 1: No. 18. Da kam Jesus mit ihnen zu einem HofeDR11 -3.97 dB -19.95 dB 2:01 19-St. Matthew Passion, BWV 244, Pt. 1: No. 19. O Schmerz! Hier zittert das gequälte HerzDR13 -1.75 dB -20.23 dB 5:04 20-St. Matthew Passion, BWV 244, Pt. 1: No. 20. Ich will bei meinem Jesu wachenDR12 -3.76 dB -22.81 dB 0:41 21-St. Matthew Passion, BWV 244, Pt. 1: No. 21. Und ging hin ein wenigDR12 -8.90 dB -25.22 dB 0:56 22-St. Matthew Passion, BWV 244, Pt. 1: No. 22. Der Heiland fällt vor seinem Vater niederDR14 -7.94 dB -24.94 dB 4:08 23-St. Matthew Passion, BWV 244, Pt. 1: No. 23. Gerne will ich mich bequemenDR13 -2.79 dB -21.21 dB 1:10 24-St. Matthew Passion, BWV 244, Pt. 1: No. 24. Und er kam zu seinen JüngernDR10 -3.09 dB -17.09 dB 1:00 25-St. Matthew Passion, BWV 244, Pt. 1: No. 25. Was mein Gott will. das g'scheh allzeitDR14 -1.09 dB -22.26 dB 2:20 26-St. Matthew Passion, BWV 244, Pt. 1: No. 26. Und er kam und fand sie aber schlafendDR13 -0.11 dB -17.17 dB 4:32 27-St. Matthew Passion, BWV 244, Pt. 1: No. 27. So ist mein Jesus nun gefangenDR15 -1.70 dB -21.63 dB 2:11 28-St. Matthew Passion, BWV 244, Pt. 1: No. 28. Und siehe. einer aus denenDR12 -2.88 dB -18.25 dB 6:12 29-St. Matthew Passion, BWV 244, Pt. 1: No. 29. O Mensch. bewein dein Sünde großDR13 -2.46 dB -19.30 dB 3:51 30-St. Matthew Passion, BWV 244, Pt. 2: No. 30, Ach, nun ist mein Jesus hinDR13 -6.80 dB -24.62 dB 1:08 31-St. Matthew Passion, BWV 244, Pt. 2: No. 31. Die aber Jesum gegriffen hattenDR11 -0.95 dB -15.86 dB 0:41 32-St. Matthew Passion, BWV 244, Pt. 2: No. 32. Mir hat die Welt trüglich gericht'DR12 -6.44 dB -24.44 dB 1:19 33-St. Matthew Passion, BWV 244, Pt. 2: No. 33. Und wiewohl viel falsche Zeugen herzutratenDR11 -9.17 dB -23.96 dB 1:05 34-St. Matthew Passion, BWV 244, Pt. 2: No. 34. Mein Jesus schweigtDR12 -5.03 dB -21.61 dB 3:33 35-St. Matthew Passion, BWV 244, Pt. 2: No. 35. Geduld! Wenn mich falsche Zungen stechenDR12 -0.11 dB -17.92 dB 2:04 36-St. Matthew Passion, BWV 244, Pt. 2: No. 36. Und der Hohepriester antworteteDR10 -5.17 dB -18.35 dB 0:44 37-St. Matthew Passion, BWV 244, Pt. 2: No. 37. Wer hat dich so geschlagenDR13 -3.89 dB -22.48 dB 2:31 38-St. Matthew Passion, BWV 244, Pt. 2: No. 38. Petrus aber saß draußen im PalastDR12 -4.28 dB -21.82 dB 6:21 39-St. Matthew Passion, BWV 244, Pt. 2: No. 39. Erbarme dich. mein GottDR11 -0.87 dB -16.80 dB 0:57 40-St. Matthew Passion, BWV 244, Pt. 2: No. 40. Bin ich gleich von dir gewichenDR13 -0.11 dB -20.97 dB 1:56 41-St. Matthew Passion, BWV 244, Pt. 2: No. 41. Des Morgens aber hielten alle HohepriesterDR12 -7.75 dB -23.36 dB 2:52 42-St. Matthew Passion, BWV 244, Pt. 2: No. 42. Gebt mir meinen Jesum wiederDR14 -5.70 dB -24.82 dB 2:03 43-St. Matthew Passion, BWV 244, Pt. 2: No. 43. Sie hielten aber einen RatDR10 -4.38 dB -17.93 dB 0:56 44-St. Matthew Passion, BWV 244, Pt. 2: No. 44. Befiehl du deine WegeDR13 -0.11 dB -18.94 dB 2:29 45-St. Matthew Passion, BWV 244, Pt. 2: No. 45. Auf das Fest aber hatte der Landpfleger GewohnheitDR10 -1.96 dB -16.67 dB 0:39 46-St. Matthew Passion, BWV 244, Pt. 2: No. 46. Wie wunderbarlich ist doch diese StrafeDR9 -11.33 dB -25.25 dB 0:15 47-St. Matthew Passion, BWV 244, Pt. 2: No. 47. Der Landpfleger sagteDR10 -1.91 dB -19.67 dB 1:11 48-St. Matthew Passion, BWV 244, Pt. 2: No. 48. Er hat uns allen wohlgetanDR12 -3.05 dB -22.28 dB 5:07 49-St. Matthew Passion, BWV 244, Pt. 2: No. 49. Aus Liebe will mein Heiland sterbenDR11 -0.11 dB -15.43 dB 2:04 50-St. Matthew Passion, BWV 244, Pt. 2: No. 50. Sie schrieen aber noch mehrDR13 -2.32 dB -21.13 dB 0:58 51-St. Matthew Passion, BWV 244, Pt. 2: No. 51. Erbarm es GottDR15 -2.69 dB -23.98 dB 6:36 52-St. Matthew Passion, BWV 244, Pt. 2: No. 52. Können Tränen meiner WangenDR13 -0.11 dB -19.65 dB 1:15 53-St. Matthew Passion, BWV 244, Pt. 2: No. 53. Da nahmen die Kriegsknechte des LandpflegersDR13 -0.65 dB -17.06 dB 1:58 54-St. Matthew Passion, BWV 244, Pt. 2: No. 54. O Haupt voll Blut und WundenDR12 -8.98 dB -25.26 dB 1:10 55-St. Matthew Passion, BWV 244, Pt. 2: No. 55. Und da sie ihn verspottet hattenDR11 -4.78 dB -21.95 dB 0:40 56-St. Matthew Passion, BWV 244, Pt. 2: No. 56. Ja freilich will in uns das Fleisch und BlutDR13 -5.29 dB -22.80 dB 5:13 57-St. Matthew Passion, BWV 244, Pt. 2: No. 57. Komm. süßes Kreuz. so will ich sagenDR12 -0.11 dB -17.18 dB 3:43 58-St. Matthew Passion, BWV 244, Pt. 2: No. 58. Und da sie an die Stätte kamenDR12 -5.57 dB -23.04 dB 1:25 59-St. Matthew Passion, BWV 244, Pt. 2: No. 59. Ach Golgatha. unselges GolgathaDR13 -5.31 dB -23.26 dB 3:30 60-St. Matthew Passion, BWV 244, Pt. 2: No. 60. Sehet. Jesus hat die HandDR14 -1.10 dB -21.52 dB 2:22 61-St. Matthew Passion, BWV 244, Pt. 2: No. 61. Und von der sechsten Stunde anDR10 -7.59 dB -20.40 dB 1:06 62-St. Matthew Passion, BWV 244, Pt. 2: No. 62. Wenn ich einmal soll scheidenDR12 -0.52 dB -21.59 dB 2:42 63-St. Matthew Passion, BWV 244, Pt. 2: No. 63. Und siehe da. der Vorhang im Tempel zerrißDR13 -9.51 dB -25.63 dB 1:49 64-St. Matthew Passion, BWV 244, Pt. 2: No. 64. Am Abend. da es kühle warDR12 -7.46 dB -22.62 dB 6:42 65-St. Matthew Passion, BWV 244, Pt. 2: No. 65. Mache dich. mein Herze. reinDR13 -0.11 dB -18.79 dB 2:49 66-St. Matthew Passion, BWV 244, Pt. 2: No. 66. Und Joseph nahm den LeibDR13 -4.40 dB -20.66 dB 1:43 67-St. Matthew Passion, BWV 244, Pt. 2: No. 67. Nun ist der Herr zur Ruh gebrachtDR13 -0.11 dB -17.38 dB 5:23 68-St. Matthew Passion, BWV 244, Pt. 2: No. 68. Wir setzen uns mit Tränen nieder--------------------------------------------------------------------------------
Number of tracks: 68Official DR value: DR12
Samplerate: 96000 HzChannels: 2Bits per sample: 24Bitrate: 2636 kbpsCodec: FLAC================================================================================
Источник (релизер): PrestoClassical
[doutdess.top].t393943.torrent
Torrent: Registered [ 2020-03-26 07:25 ] · 72591A2F45A8B8DE1181D99865922E08AB06F861

37 KB

Status: checked
Completed: 0 times
Size: 2.9 GB
[TR24][OF] Stephen Cleobury, Academy of Ancient Music - Bach - St. Matthew Passion - 2020 (Classical) скачать торрент бесплатно и без регистрации

[Profile] [PM]
Forum Topic Author Size
Многоканальная музыка классика и классика в современной обработке [TR24][OF] Áyax (Ayax) Llorente, Orlando Bass & Maurici Esteller - La Nuit de Mai - (Rebecca Clarke, Gabriel Faure (Fauré), Orlando Bass, Claude Debussy) 2019 (Classical | Chamber Music) RelizMAN 1.24 GB
Классика в современной обработке, Classical Crossover lossy и lossless [TR24][OF] (Hi-Res)Marion Treupel-Franck - Voice of the Soul - Flute Music by Jean Daniel Braun - 2017, FLAC (tracks) lossless, (Classical, Baroque Era) Vi$itReal 678 MB
Этническая музыка Индии lossless [TR24][OF] (Indian Classical, Sitar, World Music) [WEB] Anoushka Shankar - Home - 2015, FLAC (tracks), lossless RelizMAN 598 MB
Саундтреки к играм lossless [TR24][OF] (Score) [WEB] Sudden Strike 4 (Original Game Soundtrack) (by Peter Antovszki) - 2017, FLAC (tracks), lossless RelizMAN 424 MB
Hi-Res stereo и Многоканальная музыка Саундтреки [TR24][OF] 2Cellos - Score - 2017 (Symphonic Rock) RelizMAN 608 MB
Hi-Res stereo классика и классика в современной обработке [TR24][OF] A French Baroque Diva: Arias for Marie Fel by Rameau, Lacoste, Lalande, Rousseau, Fiocco, Mondonville (Carolyn Sampson, Ex Cathedra & Jeffrey Skidmore) - 2014 (Baroque, Opera, Vocal,... Vi$itReal 1.37 GB
Hi-Res stereo классика и классика в современной обработке [TR24][OF] A Sousa Celebration - Royal Scottish National Orchestra, Kristjan Jarvi - 2017 (Classical) Vi$itReal 1.21 GB
Hi-Res stereo классика и классика в современной обработке [TR24][OF] A Vaughan Williams Christmas - Chapel Choir Of The Royal Hospital Chelsea, William Vann - 2018 (Classical) Vi$itReal 1.18 GB
Display posts:    

Current time is: 30-Mar 13:08

All times are UTC + 3



You cannot post new topics in this forum
You cannot reply to topics in this forum
You cannot edit your posts in this forum
You cannot delete your posts in this forum
You cannot vote in polls in this forum
You cannot attach files in this forum
You can download files in this forum