Search found 97 matches

Author Message

RelizMAN

Post Yesterday 12:20

[Quote]

Информация о фильме
Название: Исландия - готовы ли вы?
Оригинальное название: Island - Wärst du bereit ?
Год выхода: 2017
Жанр: короткометражка, приключения
Режиссер: Симон Застров
В ролях: Яким Шмидт
О фильме:
Презентация путешествия Якима Шмидта по Исландским островам.
Страна: Исландия
Студия: SimonZ Filmproduktion
Продолжительность: 00:03:45
Перевод: Любительский одноголосый (AlfaMIM) [ТО AFK]
Файл
Кодек: VP9
Качество: WEBRip 2160p
Видео: 3840x2160, 16:9, 25fps, 14 Мбит/с
Звук:
Русский (AC3, 48КгЦ, 192 Кбит/с, стерео)
Английский (OPUS, 48КгЦ, 120 Кбит/с, стерео)
Субтитры: русские [Mr.Faer]

Скриншоты

Релиз от: ТО "AFK"

RelizMAN

Post 22-Mar-2020 16:35

[Quote]

Информация о фильме
Название: Дикий, дикий Восток
Оригинальное название: Wild Wild East
Год выхода: 2016
Жанр: Документальный, природа, флора, фауна
Режиссер: Джефф Паркер
О фильме:
Начиная с ежегодной миграции миллионов рыб через реку Шубенакади до популяции рыжих лис на острове Принца Эдуарда, восточное побережье Канады изобилует удивительными примерами устойчивости и выживания. Узнайте больше об этом захватывающем уголке Северной Америки и дикой природе, которая называет это домом.

Страна: Канада, США
Студия: Arcadia Entertainment Inc.
Продолжительность: 14 x ~ 00:23:01
Перевод: Профессиональный (одноголосый закадровый)
Файл
Кодек: HEVC/H.265
Качество: UHDTV 2160p
Видео: 3840x2160 (16:9), 25 fps, HEVC (Н.265), Main [email protected], ~ 15,6 Mbps, 50fps, 10 bits
Звук:
Русский 48 kHz, MPEG Layer 2, 2 ch, ~128.00 kbps avg
Английский 48 kHz, MPEG Layer 2, 2 ch, ~128.00 kbps avg
Семпл

MediaInfo

Complete name : L:ФильмыДокументальныеДикий_дикий Восток1. Лисы.ts
Format : MPEG-TS
File size : 2.68 GiB
Duration : 23 min 1 s
Overall bit rate mode : Variable
Overall bit rate : 16.7 Mb/s
Video
ID : 4881 (0x1311)
Menu ID : 34003 (0x84D3)
Format : HEVC
Format/Info : High Efficiency Video Coding
Format profile : Main [email protected]@Main
Codec ID : 36
Duration : 17 h 1 min
Bit rate : 15.6 Mb/s
Width : 3 840 pixels
Height : 2 160 pixels
Display aspect ratio : 16:9
Frame rate : 50.000 FPS
Standard : Component
Color space : YUV
Chroma subsampling : 4:2:0
Bit depth : 10 bits
Bits/(Pixel*Frame) : 0.038
Stream size : 111 GiB
Color range : Limited
Color primaries : BT.709
Transfer characteristics : BT.709
Matrix coefficients : BT.709
Audio #1
ID : 4882 (0x1312)
Menu ID : 34003 (0x84D3)
Format : MPEG Audio
Format version : Version 1
Format profile : Layer 2
Codec ID : 4
Duration : 23 min 1 s
Bit rate mode : Constant
Bit rate : 128 kb/s
Channel(s) : 2 channels
Sampling rate : 48.0 kHz
Frame rate : 41.667 FPS (1152 SPF)
Compression mode : Lossy
Delay relative to video : 72 ms
Stream size : 21.1 MiB (1%)
Language : Russian
Audio #2
ID : 4883 (0x1313)
Menu ID : 34003 (0x84D3)
Format : MPEG Audio
Format version : Version 1
Format profile : Layer 2
Codec ID : 4
Duration : 23 min 1 s
Bit rate mode : Constant
Bit rate : 128 kb/s
Channel(s) : 2 channels
Sampling rate : 48.0 kHz
Frame rate : 41.667 FPS (1152 SPF)
Compression mode : Lossy
Delay relative to video : 72 ms
Stream size : 21.1 MiB (1%)
Language : English

Содержание

01. Лисы / Foxes
02. Реки / Rivers
03. Небеса / Sky
04. Приливы и отливы / Tides
05. Опылители / Pollinators
06. Город / City
07. Высокогорье / Highlands
08. Болотистые земли / Wetlands
09. Ракообразные / Crustaceans
10. Лошади Сен-Пьера и Микелона / Horses of St. Pierre & Miquelon
11. Нашествие / Invasion
12. Времена года / Seasons
13. Олень / Deer
14. Миграция / Migration

Скриншоты

Релиз от: kyba

RelizMAN

Post 09-Mar-2020 13:35

[Quote]

Информация о фильме
Название: Дикая Новая Зеландия
Оригинальное название: Wildest New Zealand
Год выхода: 2017
Жанр: Документальный, природа, флора, фауна
Режиссер: Крейг Мид
О фильме:
На островах Новой Зеландии обитает совершенно уникальный звериный мир. Это место, где обычные правила не применяются - птицы не могут летать, маленькая древняя ящерица - главный хищник, попугаи играют на снежных горных лугах, а пингвины бродят по улицам. Морские котики сражаются на пляжах, альбатросы витают в воздушных потоках, а в густом зарослях этой пышной, живой земли разыгрывается фильм с монстрами в миниатюре.

Страна: Канада
Студия: Blue Ant Media, Natural History New Zeland Ltd
Продолжительность: 5 x ~ 00:47:58
Перевод: Профессиональный (одноголосый закадровый)
Файл
Кодек: HEVC/H.265
Качество: UHDTV 2160p
Видео: 3840x2160 (16:9), 25 fps, HEVC (Н.265), Main [email protected], ~ 15,6 Mbps, 50fps, 10 bits
Звук:
Русский 48 kHz, MPEG Layer 2, 2 ch, ~128.00 kbps avg
Английский 48 kHz, MPEG Layer 2, 2 ch, ~128.00 kbps avg
Семпл

MediaInfo

Complete name : M:ТоррентыДикая Новая Зеландия�1. История двух пингвинов.ts
Format : MPEG-TS
File size : 5.58 GiB
Duration : 47 min 58 s
Overall bit rate mode : Variable
Overall bit rate : 16.7 Mb/s
Video
ID : 4881 (0x1311)
Menu ID : 34003 (0x84D3)
Format : HEVC
Format/Info : High Efficiency Video Coding
Format profile : Main [email protected]@Main
Codec ID : 36
Duration : 25 h 42 min
Bit rate : 15.6 Mb/s
Width : 3 840 pixels
Height : 2 160 pixels
Display aspect ratio : 16:9
Frame rate : 50.000 FPS
Standard : Component
Color space : YUV
Chroma subsampling : 4:2:0
Bit depth : 10 bits
Bits/(Pixel*Frame) : 0.038
Stream size : 168 GiB
Color range : Limited
Color primaries : BT.709
Transfer characteristics : BT.709
Matrix coefficients : BT.709
Audio #1
ID : 4882 (0x1312)
Menu ID : 34003 (0x84D3)
Format : MPEG Audio
Format version : Version 1
Format profile : Layer 2
Codec ID : 4
Duration : 47 min 57 s
Bit rate mode : Constant
Bit rate : 128 kb/s
Channel(s) : 2 channels
Sampling rate : 48.0 kHz
Frame rate : 41.667 FPS (1152 SPF)
Compression mode : Lossy
Delay relative to video : 160 ms
Stream size : 43.9 MiB (1%)
Language : Russian
Audio #2
ID : 4883 (0x1313)
Menu ID : 34003 (0x84D3)
Format : MPEG Audio
Format version : Version 1
Format profile : Layer 2
Codec ID : 4
Duration : 47 min 57 s
Bit rate mode : Constant
Bit rate : 128 kb/s
Channel(s) : 2 channels
Sampling rate : 48.0 kHz
Frame rate : 41.667 FPS (1152 SPF)
Compression mode : Lossy
Delay relative to video : 112 ms
Stream size : 43.9 MiB (1%)
Language : English

Содержание

01. История двух пингвинов / A Tale of two Penguins
На премьере сериала группа маленьких голубых пингвинов готовится к размножению на юго-восточном побережье Новой Зеландии.
02. Первозданный Запад / Untamed West
У западного побережья Новой Зеландии есть покрытые ледником горы, залитые дождем местные леса и бурные холодные моря.
03. Заповедники / Wild Fortresses
В Новой Зеландии две дикие крепости защищают уязвимых местных животных: отдаленный остров, защищенный рвом с соленой водой, и цитадель на вершине холма, окруженная барьером, защищающим от хищников.
04. Наследие океана / Ocean Legacy
Весна на восточном побережье Новой Зеландии - это перспективное время для двух знаковых видов: новозеландского морского котика и северного королевского альбатроса.
05. Насекомые/ Creepiest Crawlies
Изолированные острова Новой Зеландии славятся как необычный рай, где обитает множество уникальных диких животных. Наиболее известный своими нелетающими птицами, древними рептилиями и прибрежными млекопитающими, более внимательный взгляд открывает другой мир.
Релиз от: kyba

RelizMAN

Post 08-Mar-2020 06:20

[Quote]

Информация о фильме
Название: Великие океаны
Оригинальное название: Great Blue Wild
Год выхода: 2015
Жанр: Документальный, природа, флора, фауна
Режиссер: Дэн Хьюз
О фильме:
Познакомьтесь поближе с китовыми акулами, дельфинами, гигантскими скатами мантой и захватывающими рыбными стаями. GREAT BLUE WILD - это ваш тур высокой четкости по подводному миру, в сочетании с увлекательными историями от профессионалов подводного плавания.

Страна: США, Канада
Студия: Blue Ant Media
Продолжительность: 6 x ~ 00:44:25
Перевод: Профессиональный (одноголосый закадровый)
Файл
Кодек: HEVC/H.265
Качество: UHDTV 2160p
Видео: 3840x2160 (16:9), 25 fps, HEVC (Н.265), Main [email protected], ~ 15,6 Mbps, 50fps, 10 bits
Звук:
Русский 48 kHz, MPEG Layer 2, 2 ch, ~128.00 kbps avg
Английский 48 kHz, MPEG Layer 2, 2 ch, ~128.00 kbps avg
Семпл

MediaInfo

Complete name : D:ТоррентыФильмыДокументальныеВеликие океаны_S11. Остров Сокорро.ts
Format : MPEG-TS
File size : 5.17 GiB
Duration : 44 min 25 s
Overall bit rate mode : Variable
Overall bit rate : 16.7 Mb/s
Video
ID : 4881 (0x1311)
Menu ID : 34003 (0x84D3)
Format : HEVC
Format/Info : High Efficiency Video Coding
Format profile : Main [email protected]@Main
Codec ID : 36
Duration : 19 h 3 min
Bit rate : 15.6 Mb/s
Width : 3 840 pixels
Height : 2 160 pixels
Display aspect ratio : 16:9
Frame rate : 50.000 FPS
Standard : Component
Color space : YUV
Chroma subsampling : 4:2:0
Bit depth : 10 bits
Bits/(Pixel*Frame) : 0.038
Stream size : 124 GiB
Color range : Limited
Color primaries : BT.709
Transfer characteristics : BT.709
Matrix coefficients : BT.709
Audio #1
ID : 4882 (0x1312)
Menu ID : 34003 (0x84D3)
Format : MPEG Audio
Format version : Version 1
Format profile : Layer 2
Codec ID : 4
Duration : 44 min 25 s
Bit rate mode : Constant
Bit rate : 128 kb/s
Channel(s) : 2 channels
Sampling rate : 48.0 kHz
Frame rate : 41.667 FPS (1152 SPF)
Compression mode : Lossy
Delay relative to video : 72 ms
Stream size : 40.7 MiB (1%)
Language : Russian
Audio #2
ID : 4883 (0x1313)
Menu ID : 34003 (0x84D3)
Format : MPEG Audio
Format version : Version 1
Format profile : Layer 2
Codec ID : 4
Duration : 44 min 25 s
Bit rate mode : Constant
Bit rate : 128 kb/s
Channel(s) : 2 channels
Sampling rate : 48.0 kHz
Frame rate : 41.667 FPS (1152 SPF)
Compression mode : Lossy
Delay relative to video : 32 ms
Stream size : 40.7 MiB (1%)
Language : English

Содержание

01. Остров Сокорро/ Socorro
02. Остров Кокос / Cocos Island
03. Роатан / Roatan
04. Косумель / Cozumel
05. Белиз / Belize
06. Багамские острова / Bahamas

Скриншоты

Релиз от: kyba

RelizMAN

Post 09-Feb-2020 23:05

[Quote]

Информация о фильме
Название: Времена года в дикой природе Америки
Оригинальное название: America's Wild Seasons
Год выхода: 2019
Жанр: Документальный, природа, флора, фауна
Режиссер: Джефф Моралес
О фильме:
«Американские дикие сезоны» - это знаковый документальный сериал из четырех частей, в котором прославляется драма и зрелище американской дикой природы, запечатленные в течение бурного и опасного года. На земле, в воздухе и под волнами изменяющиеся условия создают особую повествовательную дугу, поскольку каждый дикий житель сталкивается с проблемами жизни и смерти.
Страна: США
Студия: MBM TV and Tamarin Productions
Продолжительность: 4 x ~ 00:47:50
Перевод: Профессиональный (одноголосый закадровый)
Файл
Кодек: HEVC/H.265
Качество: UHDTV 2160p
Видео: 3840x2160 (16:9, HEVC (Н.265), Main [email protected], ~ 15,7 Mbps, 50 fps, 10 bits
Звук:
Русский 48 kHz, MPEG Layer 2, 2 ch, ~128.00 kbps avg
Английский 48 kHz, MPEG Layer 2, 2 ch, ~128.00 kbps avg
Семпл

MediaInfo

Complete name : F:НаладкиВремена года в дикой природе Америки�1. Весна.ts
Format : MPEG-TS
File size : 5.61 GiB
Duration : 47 min 50 s
Overall bit rate mode : Variable
Overall bit rate : 16.8 Mb/s
Video
ID : 513 (0x201)
Menu ID : 1 (0x1)
Format : HEVC
Format/Info : High Efficiency Video Coding
Format profile : Main [email protected]@Main
Codec ID : 36
Duration : 47 min 50 s
Bit rate : 15.7 Mb/s
Width : 3 840 pixels
Height : 2 160 pixels
Display aspect ratio : 16:9
Frame rate : 50.000 FPS
Standard : Component
Color space : YUV
Chroma subsampling : 4:2:0
Bit depth : 10 bits
Bits/(Pixel*Frame) : 0.038
Stream size : 5.24 GiB (94%)
Color range : Limited
Color primaries : BT.709
Transfer characteristics : BT.709
Matrix coefficients : BT.709
Audio #1
ID : 514 (0x202)
Menu ID : 1 (0x1)
Format : MPEG Audio
Format version : Version 1
Format profile : Layer 2
Codec ID : 3
Duration : 47 min 50 s
Bit rate mode : Constant
Bit rate : 128 kb/s
Channel(s) : 2 channels
Sampling rate : 48.0 kHz
Frame rate : 41.667 FPS (1152 SPF)
Compression mode : Lossy
Stream size : 43.8 MiB (1%)
Language : Russian
Audio #2
ID : 515 (0x203)
Menu ID : 1 (0x1)
Format : MPEG Audio
Format version : Version 1
Format profile : Layer 2
Codec ID : 3
Duration : 47 min 50 s
Bit rate mode : Constant
Bit rate : 128 kb/s
Channel(s) : 2 channels
Sampling rate : 48.0 kHz
Frame rate : 41.667 FPS (1152 SPF)
Compression mode : Lossy
Stream size : 43.8 MiB (1%)
Language : English

Содержание

01. Весна / Spring
По всему континенту земля и дикая природа возрождается, наслаждаясь теплом. Для одних животных начинается горячая пора ухаживаний, которая сопровождается боями за превоходство. Для других наступает время начать совершенно новую жизнь.
02. Лето / Summer
Летом по всей Америке наступает пора изобилия. Животные стараются не упустить возможность воспользоваться дарами природы. Молодняк начинает изучать мир вокруг, а родители используют эти долгие дни для того, чтобы вырастить потомство.
03. Осень / Aotumn
Осенью Америку ждет череда изменений. Деревья приветствуют наступление прохлады, облачившись в пестрые наряды. Для животных наступает время перемен.
04. Зима / Winter
Зима - это самое сложное испытание. На большей части Америки становится холоднее, и одни животные перебираются на юг с более мягким климатом, а другие остаются и мужественно встречают суровые холода и метели, надвигающиеся на север.

Скриншоты

Релиз от: kyba

RelizMAN

Post 12-Jan-2020 21:05

[Quote]

Информация о фильме
Название: Семь миров, одна планета
Оригинальное название: Seven Worlds, One Planet
Год выхода: 2019
Жанр: Документальный, природа, флора, фауна
Режиссер: Джилз Баджер, Чадден Хантер, Эмма Нэппер
В ролях: Дэвид Аттенборо
О фильме:
Миллионы лет назад невероятные силы разорвали земную кору, создав наши семь континентов - каждый со своим особенным климатом, своей особой местностью и своей уникальной животной жизнью. «Семь миров» - от красочного рая Южной Америки до палящей жары Африки - демонстрирует истинный характер каждого континента, в свою очередь, и показывает, как он сформировал всю жизнь там. Удивляйтесь неожиданным историям. Полюбуйтесь знаковыми пейзажами. А так же, будьте пораженными захватывающей дикой природой.
Это документальный сериал от BBC Natural History Unit. Серия из семи частей, в которой каждый эпизод посвящен одному континенту, дебютировала 27 октября 2019 года и рассказана и представлена натуралистом сэром Дэвидом Аттенборо. Над сериалом, снятым более чем за 1794 дня, работали более 1500 человек, с 92 съемками в 41 стране мира.

Страна: Великобритания, Китай, США, Германия, Франция
Студия: BBC Studios, BBC Natural History Unit (NHU)
Продолжительность: 7 х ~00:52:00
Перевод: Профессиональный (одноголосый, закадровый)
Субтитры: Русские, английские (SDH)
Релиз от: TeamHD
Качество: UHD BDRemux 2160p (HDR)
Видео: HEVC/H.265, 3840x2160, (16:9), 59.3 Mbps, 23.976 fps
Аудио 1: DTS-HD MA, 8 ch, 5237 - Русский (Семён Ващенко)
Аудио 2: TrueHD+Atmos, 8 ch, 4529 Kbps - Английский
Аудио 3: AC3, 6 ch, 640 Kbps - Английский

Список серий:

Episode 1: Антарктика
Episode 2: Азия.
Episode 3: Южная Америка.
Episode 4: Австралия.
Episode 5: Европа.
Episode 6: Северная Америка.
Episode 7: Африка.

MediaInfo:

General
Unique ID : 177317217829546275533299944533133485896 (0x85660DCF7E1ABA837DC0669F48D1E748)
Complete name : F:Seven.Worlds.One.Planet.S01.2019.2160p.HDR.BDRemuxSeven.Worlds.One.Planet.S01E04.2019.2160p.HDR.BDRemux.mkv
Format : Matroska
Format version : Version 4
File size : 25.6 GiB
Duration : 52 min 34 s
Overall bit rate mode : Variable
Overall bit rate : 69.8 Mb/s
Encoded date : UTC 2020-01-07 12:39:53
Writing application : mkvmerge v38.0.0 ('The Silent Type') 64-bit
Writing library : libebml v1.3.9 + libmatroska v1.5.2
Cover : Yes
Attachments : cover.jpg
Video
ID : 1
Format : HEVC
Format/Info : High Efficiency Video Coding
Format profile : Main [email protected]@High
HDR format : SMPTE ST 2086, HDR10 compatible
Codec ID : V_MPEGH/ISO/HEVC
Duration : 52 min 34 s
Bit rate : 59.3 Mb/s
Width : 3 840 pixels
Height : 2 160 pixels
Display aspect ratio : 16:9
Frame rate mode : Constant
Frame rate : 23.976 (24000/1001) FPS
Color space : YUV
Chroma subsampling : 4:2:0 (Type 2)
Bit depth : 10 bits
Bits/(Pixel*Frame) : 0.298
Stream size : 21.8 GiB (85%)
Title : BDRemux.2160p.HDR by Silverok
Default : Yes
Forced : No
Color range : Limited
Color primaries : BT.2020
Transfer characteristics : PQ
Matrix coefficients : BT.2020 non-constant
Mastering display color pri : Display P3
Mastering display luminance : min: 0.0050 cd/m2, max: 1000 cd/m2
Maximum Content Light Level : 996 cd/m2
Maximum Frame-Average Light : 524 cd/m2
Audio #1
ID : 2
Format : DTS XLL
Format/Info : Digital Theater Systems
Commercial name : DTS-HD Master Audio
Codec ID : A_DTS
Duration : 52 min 34 s
Bit rate mode : Variable
Bit rate : 5 237 kb/s
Channel(s) : 8 channels
Channel layout : C L R LFE Lb Rb Lss Rss
Sampling rate : 48.0 kHz
Frame rate : 93.750 FPS (512 SPF)
Bit depth : 24 bits
Compression mode : Lossless
Stream size : 1.92 GiB (8%)
Title : Одноголосый закадровый, Семён Ващенко
Language : Russian
Default : Yes
Forced : No
Audio #2
ID : 3
Format : MLP FBA 16-ch
Format/Info : Meridian Lossless Packing FBA with 16-channel presentation
Commercial name : Dolby TrueHD with Dolby Atmos
Codec ID : A_TRUEHD
Duration : 52 min 34 s
Bit rate mode : Variable
Bit rate : 4 529 kb/s
Maximum bit rate : 6 645 kb/s
Channel(s) : 8 channels
Channel layout : L R C LFE Ls Rs Lb Rb
Sampling rate : 48.0 kHz
Frame rate : 1 200.000 FPS (40 SPF)
Compression mode : Lossless
Stream size : 1.66 GiB (6%)
Language : English
Default : No
Forced : No
Number of dynamic objects : 11
Bed channel count : 1 channel
Bed channel configuration : LFE
Audio #3
ID : 4
Format : AC-3
Format/Info : Audio Coding 3
Commercial name : Dolby Digital
Codec ID : A_AC3
Duration : 52 min 34 s
Bit rate mode : Constant
Bit rate : 640 kb/s
Channel(s) : 6 channels
Channel layout : L R C LFE Ls Rs
Sampling rate : 48.0 kHz
Frame rate : 31.250 FPS (1536 SPF)
Compression mode : Lossy
Stream size : 241 MiB (1%)
Language : English
Service kind : Complete Main
Default : No
Forced : No
Text #1
ID : 5
Format : UTF-8
Codec ID : S_TEXT/UTF8
Codec ID/Info : UTF-8 Plain Text
Duration : 50 min 43 s
Bit rate : 71 b/s
Count of elements : 371
Stream size : 26.6 KiB (0%)
Title : Full
Language : Russian
Default : No
Forced : No
Text #2
ID : 6
Format : UTF-8
Codec ID : S_TEXT/UTF8
Codec ID/Info : UTF-8 Plain Text
Duration : 51 min 14 s
Bit rate : 41 b/s
Count of elements : 389
Stream size : 15.7 KiB (0%)
Title : SDH
Language : English
Default : No
Forced : No
Menu
00:00:00.000 : en:Глава 01
00:12:01.888 : en:Глава 02
00:21:53.103 : en:Глава 03
00:29:46.618 : en:Глава 04
00:39:38.626 : en:Глава 05

Скриншоты

RelizMAN

Post 01-Dec-2019 22:20

[Quote]

Информация о фильме
Название: Завихренность 2
Оригинальное: Vorticity 2
Год выхода: 2019
Жанр: Видовой
Режиссер: Mike Olbinski
О фильме:
Два года в разработке. Я принял непростое решение сохранить всё, что снял той , и объединить с штормами, которые запечатлел в 2019 году, и сделать лучший из возможных покадровых фильмов.
Страна: США
Продолжительность: 00:07:33
Перевод: Не требуется
Файл
Кодек: MPEG-4 AVC
Качество: WEBRip 2160p
Видео: 3840x2160, 21,2 Мбит/с, 30 кадр/с
Звук: AAC, 2 канала, 253 Кбит/с

Скриншоты

RelizMAN

Post 16-Nov-2019 18:20

[Quote]

-Информация о фильме
Название: Канарские острова 4K
Оригинальное название: Die Kanarischen Inseln 4K
Год выхода: 2016
Жанр: Документальный, природа, путешествия
Режиссер: Майкл Шламбергер / Michael Schlamberger-О фильме:
Северо-Западная Африка, тысячи километров голой, выжженной пустыни. У этого побережья находится небольшой, удаленный архипелаг, окруженный Атлантическим океаном. Семь вулканических островов, и каждый из них – отдельный мир. Здесь теплые экваториальные течения смешиваются с холодными водами северной Атлантики. Планктон поднимается с глубины и собирается у поверхности океана. Рыбы из разных климатических зон встречаются в водах вблизи Канарских островов. Пассаты, дующие над водой, приносят жизнь на острова. Они собирают влагу, пересекая океан, и создают условия для поражающего воображение разнообразия флоры и фауны.-Страна: Австрия, Дания, Швеция
Студия: Science Vision Filmproduktions, Danmarks Radio, Sveriges Television
Продолжительность: 2 х ~ 00:50:00
Перевод: Дублированный-Файл
Качество: BDRemux 2160p SDR HEVC
Видео: 3840 х 2160 at 25.000 fps, HEVC, ~60.0 Mbps avg
Аудио 1: Русский: 48 kHz, AC3, 2/0 (L,R) ch, ~192.00 kbps avg
Аудио 2: German: 48 kHz, DTS-HD MA 5.1 (Front: L C R, Side: L R, LFE) ch, 2048.00 kbps avg (Core 1509 kbps)
Аудио 3: English: 48 kHz, DTS-HD MA 5.1 (Front: L C R, Side: L R, LFE) ch, 2102.00 kbps avg (Core 1509 kbps)-

Скриншоты

RelizMAN

Post 16-Nov-2019 01:20

[Quote]

Информация о фильме
Название: Завихренность
Оригинальное: Vorticity
Год выхода: 2016
Жанр: Видовой
Режиссер: Mike Olbinski
О фильме:
Кровь. Пот. Слёзы. Радость. Это то, чем эта весна была для меня. Мили, старания, неудачи, пропущенные эпические дни, недосыпание, ликование и время вдали от семьи. И когда погоня была закончена ... интересно, стоило ли это того?
Страна: США
Продолжительность: 00:06:25
Перевод: Не требуется
Файл
Кодек: MPEG-4 AVC
Качество: WEBRip 2160p
Видео: 3840x2160, 20,0 Мбит/с, 30 кадр/с
Звук: AAC, 2 канала, 256 Кбит/с

Скриншоты

RelizMAN

Post 13-Nov-2019 02:35

[Quote]

Информация о фильме
Название: Аполлон-11
Оригинальное название: Apollo 11
Год выхода: 2019
Жанр: Документальный, история
Режиссер: Тодд Дуглас Миллер
В ролях: Базз Олдрин, Джоан Энн Арчер, Джанет Армстронг, Джек Бенни, Джонни Карсон, Клиффорд Э. Чарльзуорт, Майкл Коллинз, Уолтер Кронкайт, Чарльз Дьюк, Линдон Джонсон
О фильме:
20 июля 1969 года космический корабль Аполлон-11 совершил посадку на поверхности Луны. Это стало настоящим прорывом для всего человечества. Астронавты Нил Армстронг и Базз Олдрин совершили настоящий подвиг и стали национальными героями Америки. Подготовка этой миссии длилась несколько лет и не раз корректировалась специалистами. Многие до конца не верили, что это возможно, но в итоге все прошло успешно. Однако многие годы экспедиция на Луну подвергалась критике, а ее реальность происходящего вызывает сомнения у многих людей и по сей день. Документальный фильм, рассказывающий о величайшем приключении человечества, содержит редкие кадры, интервью участников и очевидцев...
Официальный сайт
Страна: США
Студия: CNN Films, Statement Pictures
Продолжительность: 01:33:00
Перевод: Профессиональный (многоголосый, закадровый) | Jaskier
Файл
Кодек: H.265
Качество: BDRemux 2160p
Видео: 3840x2160 at 23.976 fps, MPEG-H HEVC HDR Video, 79000 kbps avg
Звук:
Аудио 1: АС3, 6 ch, 48 kHz, 640 kbps Русский MVO Jaskier
Аудио 2: DTS-HD MА, 6 ch, 48 kHz, 1847 kbps Английский
Рекламы нет
Субтитры: Английские
Семпл
Инфо-файл
Трейлер

Скриншоты


Скриншоты
Релиз от: Мастер 5

RelizMAN

Post 27-Sep-2019 03:20

[Quote]


Чемпионат мира на шоссе 2019
Индивидуальная гонка с раздельным стартом
Юниоры до 23 лет
Вид спорта: Велоспорт
Участники: Велогонщики
Дата выпуска: 23.09.2019
Язык комментариев: Русский (Мамучашвили)
Качество: IPTV
Формат видео: MKV
Видео: H.264, [email protected], 3840x2160, 25 fps, 12000 Kbps
Аудио: AAC LC, 48.0 KHz, 2 ch, 192 Kbps, VBR
Продолжительность: 02:51:50 -Англия.
Чемпионат мира на шоссе.
Индивидуальная гонка с раздельным стартом.
Юниоры до 23 лет.

Расписание

[box]23 сентября 15:10
Индивидуальная гонка с раздельным стартом. Юниоры - ITT U19
Харрогит - Харрогит
28 км, 2 круга
Набор высоты 492 метра
02:51:50 - Мамучашвили[/box]
[box]24 сентября 12:10
Индивидуальная гонка с раздельным стартом. Юниоры - ITT U23
Рипон - Харрогит
32 км
Набор высоты 474 метра
02:13:02 - Курдюков[/box]
[box]25 сентября 15:10
Индивидуальная гонка с раздельным стартом - ITT
Норталлертон - Харрогит
54 км
Набор высоты 684 метра
02:39:15 - Курдюков[/box]
[box]26 сентября 14:10
Групповая гонка. Юниоры - RR U19
Ричмонд - Харрогит
148 км
Набор высоты 2171 метров
03:23:25 - Мамучашвили [/box]

27 сентября 16:10
Групповая гонка. Юниоры - RR U23
Донкастер - Харрогит
192 км, 3 круга
Набор высоты 1766 метров
29 сентября 10:40
Групповая гонка - RR
Лидс - Харрогит
285 км, 7 кругов
Набор высоты 3645 метров

Скриншоты

RelizMAN

Post 27-Sep-2019 03:20

[Quote]


Чемпионат мира на шоссе 2019
Индивидуальная гонка с раздельным стартом
Юниоры до 19 лет
Вид спорта: Велоспорт
Участники: Велогонщики
Дата выпуска: 23.09.2019
Язык комментариев: Русский (Мамучашвили)
Качество: IPTV
Формат видео: MKV
Видео: H.264, [email protected], 3840x2160, 25 fps, 12000 Kbps
Аудио: AAC LC, 48.0 KHz, 2 ch, 192 Kbps, VBR
Продолжительность: 02:51:50 -Англия.
Чемпионат мира на шоссе.
Индивидуальная гонка с раздельным стартом.
Юниоры до 23 лет.

Расписание

[box]23 сентября 15:10
Индивидуальная гонка с раздельным стартом. Юниоры - ITT U19
Харрогит - Харрогит
28 км, 2 круга
Набор высоты 492 метра
02:51:50 - Мамучашвили[/box]
[box]24 сентября 12:10
Индивидуальная гонка с раздельным стартом. Юниоры - ITT U23
Рипон - Харрогит
32 км
Набор высоты 474 метра
02:13:02 - Курдюков[/box]
[box]25 сентября 15:10
Индивидуальная гонка с раздельным стартом - ITT
Норталлертон - Харрогит
54 км
Набор высоты 684 метра
02:39:15 - Курдюков[/box]
[box]26 сентября 14:10
Групповая гонка. Юниоры - RR U19
Ричмонд - Харрогит
148 км
Набор высоты 2171 метров
03:23:25 - Мамучашвили [/box]

27 сентября 16:10
Групповая гонка. Юниоры - RR U23
Донкастер - Харрогит
192 км, 3 круга
Набор высоты 1766 метров
29 сентября 10:40
Групповая гонка - RR
Лидс - Харрогит
285 км, 7 кругов
Набор высоты 3645 метров

Скриншоты

RelizMAN

Post 27-Sep-2019 03:20

[Quote]


Чемпионат мира на шоссе 2019
Индивидуальная гонка с раздельным стартом
Юниоры до 19 лет
Вид спорта: Велоспорт
Участники: Велогонщики
Дата выпуска: 23.09.2019
Язык комментариев: Русский (Мамучашвили)
Качество: IPTV
Формат видео: MKV
Видео: H.264, [email protected], 3840x2160, 25 fps, 12000 Kbps
Аудио: AAC LC, 48.0 KHz, 2 ch, 192 Kbps, VBR
Продолжительность: 02:51:50 -Англия.
Чемпионат мира на шоссе.
Индивидуальная гонка с раздельным стартом.
Юниоры до 19 лет.

Расписание

[box]23 сентября 15:10
Индивидуальная гонка с раздельным стартом. Юниоры - ITT U19
Харрогит - Харрогит
28 км, 2 круга
Набор высоты 492 метра
02:51:50 - Мамучашвили[/box]
[box]24 сентября 12:10
Индивидуальная гонка с раздельным стартом. Юниоры - ITT U23
Рипон - Харрогит
32 км
Набор высоты 474 метра
02:13:02 - Курдюков[/box]
[box]25 сентября 15:10
Индивидуальная гонка с раздельным стартом - ITT
Норталлертон - Харрогит
54 км
Набор высоты 684 метра
02:39:15 - Курдюков[/box]
[box]26 сентября 14:10
Групповая гонка. Юниоры - RR U19
Ричмонд - Харрогит
148 км
Набор высоты 2171 метров
03:23:25 - Мамучашвили [/box]

27 сентября 16:10
Групповая гонка. Юниоры - RR U23
Донкастер - Харрогит
192 км, 3 круга
Набор высоты 1766 метров
29 сентября 10:40
Групповая гонка - RR
Лидс - Харрогит
285 км, 7 кругов
Набор высоты 3645 метров

Скриншоты

RelizMAN

Post 27-Sep-2019 03:20

[Quote]


Чемпионат мира на шоссе 2019
Индивидуальная гонка с раздельным стартом
Вид спорта: Велоспорт
Участники: Велогонщики
Дата выпуска: 23.09.2019
Язык комментариев: Русский (Мамучашвили)
Качество: IPTV
Формат видео: MKV
Видео: H.264, [email protected], 3840x2160, 25 fps, 12000 Kbps
Аудио: AAC LC, 48.0 KHz, 2 ch, 192 Kbps, VBR
Продолжительность: 02:51:50 -Англия.
Чемпионат мира на шоссе.
Индивидуальная гонка с раздельным стартом.

Расписание

[box]23 сентября 15:10
Индивидуальная гонка с раздельным стартом. Юниоры - ITT U19
Харрогит - Харрогит
28 км, 2 круга
Набор высоты 492 метра
02:51:50 - Мамучашвили[/box]
[box]24 сентября 12:10
Индивидуальная гонка с раздельным стартом. Юниоры - ITT U23
Рипон - Харрогит
32 км
Набор высоты 474 метра
02:13:02 - Курдюков[/box]
[box]25 сентября 15:10
Индивидуальная гонка с раздельным стартом - ITT
Норталлертон - Харрогит
54 км
Набор высоты 684 метра
02:39:15 - Курдюков[/box]
[box]26 сентября 14:10
Групповая гонка. Юниоры - RR U19
Ричмонд - Харрогит
148 км
Набор высоты 2171 метров
03:23:25 - Мамучашвили [/box]

27 сентября 16:10
Групповая гонка. Юниоры - RR U23
Донкастер - Харрогит
192 км, 3 круга
Набор высоты 1766 метров
29 сентября 10:40
Групповая гонка - RR
Лидс - Харрогит
285 км, 7 кругов
Набор высоты 3645 метров

Скриншоты

RelizMAN

Post 03-Sep-2019 16:35

[Quote]

Бретань Классик 2019
- Вид спорта: Велоспорт
Участники: Велогонщики
Дата выпуска: 01.09.2019
Язык комментариев: Русский (Мамучашвили)
Качество: IPTV
Формат видео: MKV
Видео: H.264, [email protected], 3840x2160, 25 fps, 12000 Kbps
Аудио: AAC LC, 48.0 KHz, 2 ch, 192 Kbps, VBR
Продолжительность: 01:15:01 -
Бретань Классик, ранее Гран-при Уэст-Франс или Гран-при Плуэ (фр. Bretagne Classic Ouest-France) — ежегодная классическая однодневная велогонка,
проходящая во французском регионе Бретань с 1931 года.
-

Скриншоты

 

Current time is: 04-Apr 05:30

All times are UTC + 3