Search found 225 matches

Author Message

Vi$itReal

Post Yesterday 13:35

[Quote]

Название: Наркоман Павлик
Год выхода: 2019
Жанр: Комедия, короткометражный
Режиссер: Павел Радонцев
В ролях: Павел Радонцев, Денис Гущин, Кирилл Демидов, Антон Батищев, Илья Сорокин, Андрей Савицкий, Регина Вожова, Иван Солдаткин, Ольга Лапушкина, Михаил Мартынов, Хамид Дышниев, Андрей Мирославский, Артём Веретенников, Николай Гусляров
О сериале:
Короткометражный, юмористический сериал о приключениях Павлика, от участников проектов Comedy Club Samara Style, Comedy Club Saint-Petersburg. Сериал стремительно набирает популярность, фразы Павлика всё чаще встречаются на просторах рунета. "Здорова братиш!" - если вы слышали это и не знали откуда, смотрите. Очень угарная и ржачная тема!
Страна: Россия
Студия: Comedoz
Продолжительность: ~00:30:00
Перевод: Не требуется
Субтитры: Нет
Файл
Формат: MKV
Качество: WEBRip (1080p)
Видео: MPEG-4 AVC, ~ 5000 Кбит/с, 1920x1080
Звук: AC3, 2 ch, 192 Кбит/с

MediaInfo

Общее
Уникальный идентификатор : 267693872318864993574250689561931354897 (0xC963F6E70882B96CC526FF7D7CA91311)
Полное имя : Павлик.S07E01.WEB-DL.1080p.mkv
Формат : Matroska
Версия формата : Version 4
Размер файла : 697 Мбайт
Продолжительность : 18 м. 21 с.
Общий поток : 5308 Кбит/сек
Дата кодирования : UTC 2020-01-12 09:08:18
Программа кодирования : mkvmerge v42.0.0 ('Overtime') 64-bit
Библиотека кодирования : libebml v1.3.10 + libmatroska v1.5.2
Attachments : poster.jpg
Видео
Идентификатор : 1
Формат : AVC
Формат/Информация : Advanced Video Codec
Профиль формата : [email protected]
Настройки формата : CABAC / 4 Ref Frames
Параметр CABAC формата : Да
Параметр RefFrames формата : 4 кадра
Идентификатор кодека : V_MPEG4/ISO/AVC
Продолжительность : 18 м. 21 с.
Битрейт : 5114 Кбит/сек
Ширина : 1920 пикселей
Высота : 1080 пикселей
Соотношение сторон : 16:9
Режим частоты кадров : Постоянный
Частота кадров : 25,000 кадров/сек
Цветовое пространство : YUV
Субдискретизация насыщенности : 4:2:0
Битовая глубина : 8 бит
Тип развёртки : Прогрессивная
Бит/(Пиксели*Кадры) : 0.099
Размер потока : 671 Мбайт (96%)
Default : Да
Forced : Нет
Аудио
Идентификатор : 2
Формат : AC-3
Формат/Информация : Audio Coding 3
Коммерческое название : Dolby Digital
Идентификатор кодека : A_AC3
Продолжительность : 18 м. 21 с.
Вид битрейта : Постоянный
Битрейт : 192 Кбит/сек
Каналы : 2 канала
ChannelLayout : L R
Частота : 48,0 КГц
Частота кадров : 31,250 кадров/сек (1536 SPF)
Метод сжатия : С потерями
Размер потока : 25,2 Мбайт (4%)
Default : Да
Forced : Нет

Скриншоты

RelizMAN

Post 07-Apr-2020 15:20

[Quote]

Название: Философская (Remastered)
Исполнитель: Эдуард Суровый (DJ Kopernik)
Год: 2020
Жанр: Pop
Страна: Россия
Дата российской премьеры: 06.04.2020
Продолжительность: 00:03:51
Видео: AVC/H.264, 1280x720, ~1781 kbps
Аудио: AAC, 2 ch, 320 Kbps

Трек-лист

Эдуард Суровый (DJ Kopernik) - Философская (Remastered) 2020

MediaInfo:

General
Unique ID : 234104153073248247130640020337942261669 (0xB01ED1E1BFF13DC88AEEE982693AEFA5)
Complete name : E:VIDEO MUSICPOP RUЭдуард СуровыйЭдуард Суровый (DJ Kopernik) - Философская (Remastered) 2020.mkv
Format : Matroska
Format version : Version 2
File size : 49.2 MiB
Duration : 3 min 51 s
Overall bit rate : 1 781 kb/s
Encoded date : UTC 2020-04-06 14:09:16
Writing application : mkvmerge v4.1.1 ('Bouncin' Back') сборка от Jul 3 2010 22:54:08
Writing library : libebml v1.0.0 + libmatroska v1.0.0
Video
ID : 1
Format : AVC
Format/Info : Advanced Video Codec
Format profile : [email protected]
Format settings : CABAC / 3 Ref Frames
Format settings, CABAC : Yes
Format settings, Reference frames : 3 frames
Codec ID : V_MPEG4/ISO/AVC
Duration : 3 min 51 s
Width : 1 280 pixels
Height : 720 pixels
Display aspect ratio : 16:9
Frame rate mode : Constant
Frame rate : 29.970 (30000/1001) FPS
Color space : YUV
Chroma subsampling : 4:2:0
Bit depth : 8 bits
Scan type : Progressive
Default : Yes
Forced : No
Color range : Limited
Color primaries : BT.709
Transfer characteristics : BT.709
Matrix coefficients : BT.709
Audio
ID : 2
Format : AAC LC
Format/Info : Advanced Audio Codec Low Complexity
Codec ID : A_AAC-2
Duration : 3 min 51 s
Channel(s) : 2 channels
Channel layout : L R
Sampling rate : 44.1 kHz
Frame rate : 43.066 FPS (1024 SPF)
Compression mode : Lossy
Default : Yes
Forced : No

RelizMAN

Post 07-Apr-2020 15:20

[Quote]

Название: Love Of Russian Man (1974) Remastered
Исполнитель: Эдуард Суровый
Год: 2020
Жанр: Pop
Страна: Россия
Дата мировой премьеры: 1974
Дата российской премьеры: 26.03.2020
Продолжительность: 00:03:56
Видео: AVC/H.264, 1280x720, ~1483 kbps
Аудио: AAC, 2 ch, 128 kbps

Трек-лист

Эдуард Суровый - Love Of Russian Man (1974) Remastered 2020

Vi$itReal

Post 05-Apr-2020 19:20

[Quote]

Информация о фильме
Название: Искренне ваш, Луи Си Кей
Оригинальное название: Sincerely Louis C.K.
Год выхода: 2020
Жанр: Стендап, комедия, Standup
В ролях: Louis C.K.
О фильме:
То, чего все так долго ждали с трепетом, волнением, ненавистью и иными чувствами из гаммы человеческих эмоций, состоялось — Луи Си Кей прервал молчание, вызванное скандалом с обвинениями в домогательствах и выпустил на своем сайте новый концерт под названием «Sincerely». И он получился, пожалуй, лучшим из всего, что делал Луи за последние лет 10. И несмотря на всё пережитое, Луи по-прежнему бескомпромиссен, давит педаль в пол до упора и, главное — предельно честен. Он не обойдет вниманием ни тот злополучный инцидент, ни всё, что он пережил после него, включая смерть собственной мамы. Наверняка, после него поклонники Луи еще сильнее полюбят своего кумира, а злопыхатели найдут новые причины для ненависти в его адрес. Но тем интереснее будет смотреть и радоваться тому, что Луи снова с нами.

Страна: США
Продолжительность: 01:00:21
Перевод: Субтитры
Файл
Кодек: H.264
Качество: WEBRip 1080p
Видео: 1920x1080, 29.970fps, 8904kbps
Звук: AAC, 48000Hz, 320kbps
Субтитры: Русские, вшитые.
Семпл

Скриншоты




Релиз от: AllStandUp

Vi$itReal

Post 04-Apr-2020 06:35

[Quote]

Информация о шоу
Название: События прошедшей недели с Джоном Оливером
Оригинальное название: Last Week Tonight with John Oliver
Год выхода: 2020
Жанр: новости, сатира, комедия
Выпущено: США / HBO
В ролях: Джон Оливер и все-все-все
Описание: Аналитическое разговорное шоу HBO, в котором британский ведущий в лице Джона Оливера язвительно высмеивает события прошедшей недели.

Качество: WEB-DL 10800p
Перевод: Субтитры (hvblack)
Продолжительность: ~00:30:00
Файл
Формат: MKV
Видео: AVC (x264) | 1920x1080p | 29,970 fps | ~5600 kbps
Аудио: AAC | 48KHz | 2.0 (Front: L R) | ~64 kbps [Original]
Субтитры: Русские (SRT), Английские (SRT)
Реклама: Отсутствует

Список эпизодов

01. [16.02.2020] МедПомощь для всех
02. [23.02.2020] Моди
03. [01.03.2019] Коронавирус
04. [08.03.2019] Шерифы
05. [15.03.2019] Коронавирус-2
06. [29.03.2019] Коронавирус-3
07. ...
08. ...
...
-

MediaInfo

Общее
Уникальный идентификатор : 21926883020248048514586765577238343104 (0x107EF6CC9BC35CBF6DB08A6BB27FEDC0)
Полное имя : .../Last Week Tonight with John Oliver s07 WEB-DL 1080p/Last Week Tonight with John Oliver - s07e01 - MediCare for All.mkv
Формат : Matroska
Версия формата : Version 4 / Version 2
Размер файла : 1,19 Гбайт
Продолжительность : 29 м. 44 с.
Общий поток : 5745 Кбит/сек
Дата кодирования : UTC 2020-02-17 05:07:26
Программа кодирования : mkvmerge v31.0.0 ('Dolores In A Shoestand') 32-bit
Библиотека кодирования : libebml v1.3.6 + libmatroska v1.4.9
Видео
Идентификатор : 1
Формат : AVC
Формат/Информация : Advanced Video Codec
Профиль формата : [email protected]
Параметр CABAC формата : Да
Параметр ReFrames формата : 4 кадра
Идентификатор кодека : V_MPEG4/ISO/AVC
Продолжительность : 29 м. 43 с.
Битрейт : 5679 Кбит/сек
Ширина : 1920 пикселей
Высота : 1080 пикселей
Соотношение сторон : 16:9
Режим частоты кадров : Постоянный
Частота кадров : 29,970 (30000/1001) кадров/сек
Цветовое пространство : YUV
Субдискретизация насыщенности : 4:2:0
Битовая глубина : 8 бит
Тип развёртки : Прогрессивная
Бит/(Пиксели*Кадры) : 0.091
Размер потока : 1,18 Гбайт (99%)
Default : Да
Forced : Нет
Аудио
Идентификатор : 2
Формат : AAC
Формат/Информация : Advanced Audio Codec
Профиль формата : HE-AAC / LC
Идентификатор кодека : A_AAC
Продолжительность : 29 м. 44 с.
Битрейт : 64,0 Кбит/сек
Каналы : 2 канала
Расположение каналов : Front: L R
Частота : 48,0 КГц / 24,0 КГц
Частота кадров : 23,438 кадра/сек (1024 spf)
Метод сжатия : С потерями
Размер потока : 13,6 Мбайт (1%)
Default : Да
Forced : Нет
Текст
Идентификатор : 3
Формат : UTF-8
Идентификатор кодека : S_TEXT/UTF8
Идентификатор кодека/Информация : UTF-8 Plain Text
Продолжительность : 29 м. 25 с.
Битрейт : 122 бит/сек
Count of elements : 1086
Размер потока : 26,4 Кбайт (0%)
Язык : English
Default : Нет
Forced : Нет
-

Скриншоты

Vi$itReal

Post 01-Apr-2020 11:05

[Quote]

Информация о фильме
Название: Шоу Шаппелла. Сезон 1
Оригинальное название: Chappelle's Show. Season 1
Год выхода: 2003
Жанр: Стендап, комедия, Standup
В ролях: Dave Chappelle
О фильме:
Дэйва Шаппелла широкие народные массы полюбили не только благодаря его стендап-выступлениям, но и после его блистательного «Шоу Шаппелла», вышедшего на экраны в уже далеком 2003 году. С самых первых серий шоу не сходило с передовиц телерейтингов и обложек прессы, которую порой дико смущали скандальные скетчи из этой программы, смело высмеивавшие расовые и иные социальные стереотипы. Мы решили дать этому шоу второе дыхание и заодно и познакомить с ним тех, кто еще не в теме, и дать пересмотреть этот шедевр бывалым зрителям.

Страна: США
Количество эпизодов: 12
Продолжительность эпизода: 00:21:18
Перевод: Субтитры
Файл
Кодек: H.264
Качество: WEBRip 1080p
Видео: 1920x1080, 23.976fps, 8161kbps
Звук: AAC, 48000Hz, 320kbps
Субтитры: Русские, вшитые.
Семпл

Скриншоты




Релиз от: AllStandUp

Vi$itReal

Post 30-Mar-2020 14:20

[Quote]

Информация о шоу
Название: Субботним вечером в прямом эфире
Оригинальное название: Saturday Night Live
Год выхода: 2019-2020
Жанр: комедия, пародия, музыка
Выпущено: США / NBC
Создатель: Лорн Майклз
Режиссер: Дон Рой Кинг
Описание: Saturday Night Live («Субботним вечером в прямом эфире») — вечерняя музыкально-юмористическая передача на американском канале NBC, одна из самых популярных и долгоиграющих в истории телевидения США. Премьера состоялась 11 октября 1975 года.
По формату программа состоит из юмористических реприз и 1-2 музыкальных номеров. Большинство реприз разыгрываются в прямом эфире комедийными актерами — членами постоянной труппы, при участии приглашенного ведущего (как правило, популярной знаменитости) и музыкального гостя, которые могут быть одним лицом. Созданием реприз занимаются как актеры, так и штат писателей-сценаристов программы.

Качество: WEB-DL 1080p
Перевод: Субтитры (hvblack)
Продолжительность: ~01:08:00
Файл
Формат: MKV
Видео: AVC (x264) | 1920x1080p | 29,970 fps | ~5700 kbps
Аудио: AC3 | 48 KHz | 5.1 (Front: L C R Side: L R) + LFE | ~256 kbps [Original]
Субтитры: Русские (SRT), Английские (SRT)
Реклама: Отсутствует

Список эпизодов

01. [28.09.2019] Вуди Харрельсон / Билли Айлиш
02. [05.10.2019] Фиби Уоллер-Бридж / Тейлор Свифт
03. [12.10.2019] Дэвид Харбор / Камила Кабельо
04. [26.10.2019] Рэппер Ченс
05. [02.11.2019] Кристен Стюарт / Coldplay
06. [16.11.2019] Гарри Стайлс
07. [23.11.2019] Уилл Феррелл / Кинг Принсес
08. [07.12.2019] Дженнифер Лопез / DaBaby
09. [14.12.2019] Скарлетт Йоханссон / Найл Хоран
10. [21.12.2019] Эдди Мёрфи / Лиззо
11. [25.01.2020] Адам Драйвер / Холзи
12. [01.02.2020] Джей Джей Уотт / Люк Комбс
13. [08.02.2020] РуПол / Джастин Бибер
14. [29.02.2020] Джон Малейни / Дэвид Бирн
15. [07.03.2020] Дэниел Крейг / The Weeknd
...
-

MediaInfo

Общее
Уникальный идентификатор : 121021533459467004683201073066428221421 (0x5B0BE646FA24A6C13D9C451477A647ED)
Полное имя : E:/Мои раздачи/Saturday Night Live s45 WEB-DL 1080p/Saturday Night Live - s45e01 - Woody Harrelson and Billie Eilish.mkv
Формат : Matroska
Версия формата : Version 4 / Version 2
Размер файла : 2,81 Гбайт
Продолжительность : 1 ч. 7 м.
Общий поток : 5970 Кбит/сек
Дата кодирования : UTC 2019-09-29 23:39:21
Программа кодирования : mkvmerge v31.0.0 ('Dolores In A Shoestand') 32-bit
Библиотека кодирования : libebml v1.3.6 + libmatroska v1.4.9
Видео
Идентификатор : 1
Формат : AVC
Формат/Информация : Advanced Video Codec
Профиль формата : [email protected]
Параметр CABAC формата : Да
Параметр ReFrames формата : 4 кадра
Идентификатор кодека : V_MPEG4/ISO/AVC
Продолжительность : 1 ч. 7 м.
Битрейт : 5712 Кбит/сек
Ширина : 1920 пикселей
Высота : 1080 пикселей
Соотношение сторон : 16:9
Режим частоты кадров : Постоянный
Частота кадров : 29,970 (30000/1001) кадров/сек
Цветовое пространство : YUV
Субдискретизация насыщенности : 4:2:0
Битовая глубина : 8 бит
Тип развёртки : Прогрессивная
Бит/(Пиксели*Кадры) : 0.092
Размер потока : 2,69 Гбайт (96%)
Default : Да
Forced : Нет
Аудио
Идентификатор : 2
Формат : E-AC-3
Формат/Информация : Enhanced Audio Coding 3
Параметр Endianness формата : Big
Идентификатор кодека : A_EAC3
Продолжительность : 1 ч. 7 м.
Вид битрейта : Постоянный
Битрейт : 256 Кбит/сек
Каналы : 6 каналов
Расположение каналов : Front: L C R, Side: L R, LFE
Частота : 48,0 КГц
Частота кадров : 187,500 кадров/сек (256 spf)
Метод сжатия : С потерями
Размер потока : 124 Мбайт (4%)
Язык : English
Default : Да
Forced : Нет
Текст
Идентификатор : 3
Формат : UTF-8
Идентификатор кодека : S_TEXT/UTF8
Идентификатор кодека/Информация : UTF-8 Plain Text
Продолжительность : 1 ч. 5 м.
Битрейт : 82 бит/сек
Count of elements : 2000
Размер потока : 39,5 Кбайт (0%)
Язык : English
Default : Нет
Forced : Нет
Меню
00:00:00.000 : en:Chapter 1
00:13:19.300 : en:Chapter 2
00:23:30.466 : en:Chapter 3
00:27:35.166 : en:Chapter 4
00:31:13.400 : en:Chapter 5
00:39:07.366 : en:Chapter 6
00:43:50.266 : en:Chapter 7
00:51:37.866 : en:Chapter 8
00:56:49.733 : en:Chapter 9
01:00:36.666 : en:Chapter 10
-

Скриншоты

Vi$itReal

Post 29-Mar-2020 20:05

[Quote]

Дата/Год выпуска: 28.03.2020
Страна: Россиия
Жанр: Тв-шоу
Продолжительность: 1:31:00
Перевод: Не требуется
Русские субтитры: нет
Описание: Эфир от 28.03.2020
Играют:
Сборная Снежногорска,
Мурманск - столица Арктики;
Москва - «Университет МФЮА – Город Питон»;
Новосибирск - «Я обиделась» сборная НГУ,
Сочи - «Планета Сочи».
качество: WEB-DL
формат: MKV
Видео: h264 1920x1080 25 fps 3121 kpps
Аудио: 44.1 kHz, AAC, 2 ch, ~128.00 kbps

Скриншоты

Vi$itReal

Post 21-Mar-2020 11:50

[Quote]

Информация о шоу
Название: События прошедшей недели с Джоном Оливером
Оригинальное название: Last Week Tonight with John Oliver
Год выхода: 2020
Жанр: новости, сатира, комедия
Выпущено: США / HBO
В ролях: Джон Оливер и все-все-все
Описание: Аналитическое разговорное шоу HBO, в котором британский ведущий в лице Джона Оливера язвительно высмеивает события прошедшей недели.

Качество: WEB-DL 10800p
Перевод: Субтитры (hvblack)
Продолжительность: ~00:30:00
Файл
Формат: MKV
Видео: AVC (x264) | 1920x1080p | 29,970 fps | ~5600 kbps
Аудио: AAC | 48KHz | 2.0 (Front: L R) | ~64 kbps [Original]
Субтитры: Русские (SRT), Английские (SRT)
Реклама: Отсутствует

Список эпизодов

01. [16.02.2020] МедПомощь для всех
02. [23.02.2020] Моди
03. [01.03.2019] Коронавирус
04. [08.03.2019] Шерифы
05. [15.03.2019] Коронавирус-2
06. [29.03.2019] ...
...
-

MediaInfo

Общее
Уникальный идентификатор : 21926883020248048514586765577238343104 (0x107EF6CC9BC35CBF6DB08A6BB27FEDC0)
Полное имя : .../Last Week Tonight with John Oliver s07 WEB-DL 1080p/Last Week Tonight with John Oliver - s07e01 - MediCare for All.mkv
Формат : Matroska
Версия формата : Version 4 / Version 2
Размер файла : 1,19 Гбайт
Продолжительность : 29 м. 44 с.
Общий поток : 5745 Кбит/сек
Дата кодирования : UTC 2020-02-17 05:07:26
Программа кодирования : mkvmerge v31.0.0 ('Dolores In A Shoestand') 32-bit
Библиотека кодирования : libebml v1.3.6 + libmatroska v1.4.9
Видео
Идентификатор : 1
Формат : AVC
Формат/Информация : Advanced Video Codec
Профиль формата : [email protected]
Параметр CABAC формата : Да
Параметр ReFrames формата : 4 кадра
Идентификатор кодека : V_MPEG4/ISO/AVC
Продолжительность : 29 м. 43 с.
Битрейт : 5679 Кбит/сек
Ширина : 1920 пикселей
Высота : 1080 пикселей
Соотношение сторон : 16:9
Режим частоты кадров : Постоянный
Частота кадров : 29,970 (30000/1001) кадров/сек
Цветовое пространство : YUV
Субдискретизация насыщенности : 4:2:0
Битовая глубина : 8 бит
Тип развёртки : Прогрессивная
Бит/(Пиксели*Кадры) : 0.091
Размер потока : 1,18 Гбайт (99%)
Default : Да
Forced : Нет
Аудио
Идентификатор : 2
Формат : AAC
Формат/Информация : Advanced Audio Codec
Профиль формата : HE-AAC / LC
Идентификатор кодека : A_AAC
Продолжительность : 29 м. 44 с.
Битрейт : 64,0 Кбит/сек
Каналы : 2 канала
Расположение каналов : Front: L R
Частота : 48,0 КГц / 24,0 КГц
Частота кадров : 23,438 кадра/сек (1024 spf)
Метод сжатия : С потерями
Размер потока : 13,6 Мбайт (1%)
Default : Да
Forced : Нет
Текст
Идентификатор : 3
Формат : UTF-8
Идентификатор кодека : S_TEXT/UTF8
Идентификатор кодека/Информация : UTF-8 Plain Text
Продолжительность : 29 м. 25 с.
Битрейт : 122 бит/сек
Count of elements : 1086
Размер потока : 26,4 Кбайт (0%)
Язык : English
Default : Нет
Forced : Нет
-

Скриншоты

RelizMAN

Post 20-Mar-2020 11:20

[Quote]

Информация о фильме
Название: Однажды в России
Год выпуска: 2020
Жанр: ТВ-шоу, юмор
Ведущий: Игорь Ласточкин, Ирина Чеснокова, Михаил Стогниенко, Давид Цаллаев, Заур Байцаев, Теймураз Тания, Екатерина Моргунова, Максим Киселёв, Денис Дорохов, Александр Пташенчук, Азамат Мусагалиев, Ольга Картункова
О фильме: Самое острое сатирическое шоу на отечественном телевидении возвращается с новыми выпусками. Все, что нужно знать о России и чего никогда не покажут в новостях. Московский ОМОН ловит в центре столицы покемонов, российские ученые впервые в мире провели операцию по пересадке сознания, в России снимут адаптацию сериала «Игры престолов» и откроют филиал школы магов Хогвардс. Все это и многое другое в новых выпусках «Однажды в России», — шоу, сделанном на невероятном для российского телевидения техническом уровне, и продолжающем традицию сатиры и социального юмора на ТНТ.
Выпущено: Россия
Студия: ТНТ, Comedy Club Production
Продолжительность: 1 х ~ 00:48:00
Перевод: Не требуется
Файл
Качество: WEBRip 720p
Видео: MPEG-4 AVC, ~ 2950 Кбит/с, 1280х720
Аудио: AC3, 2 ch, 192 Кбит/с

Скриншоты


Релиз от:

Vi$itReal

Post 19-Mar-2020 00:35

[Quote]

Информация о шоу
Название: Субботним вечером в прямом эфире
Оригинальное название: Saturday Night Live
Год выхода: 2019-2020
Жанр: комедия, пародия, музыка
Выпущено: США / NBC
Создатель: Лорн Майклз
Режиссер: Дон Рой Кинг
Описание: Saturday Night Live («Субботним вечером в прямом эфире») — вечерняя музыкально-юмористическая передача на американском канале NBC, одна из самых популярных и долгоиграющих в истории телевидения США. Премьера состоялась 11 октября 1975 года.
По формату программа состоит из юмористических реприз и 1-2 музыкальных номеров. Большинство реприз разыгрываются в прямом эфире комедийными актерами — членами постоянной труппы, при участии приглашенного ведущего (как правило, популярной знаменитости) и музыкального гостя, которые могут быть одним лицом. Созданием реприз занимаются как актеры, так и штат писателей-сценаристов программы.

Качество: WEB-DL 1080p
Перевод: Субтитры (hvblack)
Продолжительность: ~01:08:00
Файл
Формат: MKV
Видео: AVC (x264) | 1920x1080p | 29,970 fps | ~5700 kbps
Аудио: AC3 | 48 KHz | 5.1 (Front: L C R Side: L R) + LFE | ~256 kbps [Original]
Субтитры: Русские (SRT), Английские (SRT)
Реклама: Отсутствует

Список эпизодов

01. [28.09.2019] Вуди Харрельсон / Билли Айлиш
02. [05.10.2019] Фиби Уоллер-Бридж / Тейлор Свифт
03. [12.10.2019] Дэвид Харбор / Камила Кабельо
04. [26.10.2019] Рэппер Ченс
05. [02.11.2019] Кристен Стюарт / Coldplay
06. [16.11.2019] Гарри Стайлс
07. [23.11.2019] Уилл Феррелл / Кинг Принсес
08. [07.12.2019] Дженнифер Лопез / DaBaby
09. [14.12.2019] Скарлетт Йоханссон / Найл Хоран
10. [21.12.2019] Эдди Мёрфи / Лиззо
11. [25.01.2020] Адам Драйвер / Холзи
12. [01.02.2020] Джей Джей Уотт / Люк Комбс
13. [08.02.2020] РуПол / Джастин Бибер
14. [29.02.2020] Джон Малейни / Дэвид Бирн
15. [07.03.2020] Дэниел Крейг / The Weeknd
...
-

MediaInfo

Общее
Уникальный идентификатор : 121021533459467004683201073066428221421 (0x5B0BE646FA24A6C13D9C451477A647ED)
Полное имя : E:/Мои раздачи/Saturday Night Live s45 WEB-DL 1080p/Saturday Night Live - s45e01 - Woody Harrelson and Billie Eilish.mkv
Формат : Matroska
Версия формата : Version 4 / Version 2
Размер файла : 2,81 Гбайт
Продолжительность : 1 ч. 7 м.
Общий поток : 5970 Кбит/сек
Дата кодирования : UTC 2019-09-29 23:39:21
Программа кодирования : mkvmerge v31.0.0 ('Dolores In A Shoestand') 32-bit
Библиотека кодирования : libebml v1.3.6 + libmatroska v1.4.9
Видео
Идентификатор : 1
Формат : AVC
Формат/Информация : Advanced Video Codec
Профиль формата : [email protected]
Параметр CABAC формата : Да
Параметр ReFrames формата : 4 кадра
Идентификатор кодека : V_MPEG4/ISO/AVC
Продолжительность : 1 ч. 7 м.
Битрейт : 5712 Кбит/сек
Ширина : 1920 пикселей
Высота : 1080 пикселей
Соотношение сторон : 16:9
Режим частоты кадров : Постоянный
Частота кадров : 29,970 (30000/1001) кадров/сек
Цветовое пространство : YUV
Субдискретизация насыщенности : 4:2:0
Битовая глубина : 8 бит
Тип развёртки : Прогрессивная
Бит/(Пиксели*Кадры) : 0.092
Размер потока : 2,69 Гбайт (96%)
Default : Да
Forced : Нет
Аудио
Идентификатор : 2
Формат : E-AC-3
Формат/Информация : Enhanced Audio Coding 3
Параметр Endianness формата : Big
Идентификатор кодека : A_EAC3
Продолжительность : 1 ч. 7 м.
Вид битрейта : Постоянный
Битрейт : 256 Кбит/сек
Каналы : 6 каналов
Расположение каналов : Front: L C R, Side: L R, LFE
Частота : 48,0 КГц
Частота кадров : 187,500 кадров/сек (256 spf)
Метод сжатия : С потерями
Размер потока : 124 Мбайт (4%)
Язык : English
Default : Да
Forced : Нет
Текст
Идентификатор : 3
Формат : UTF-8
Идентификатор кодека : S_TEXT/UTF8
Идентификатор кодека/Информация : UTF-8 Plain Text
Продолжительность : 1 ч. 5 м.
Битрейт : 82 бит/сек
Count of elements : 2000
Размер потока : 39,5 Кбайт (0%)
Язык : English
Default : Нет
Forced : Нет
Меню
00:00:00.000 : en:Chapter 1
00:13:19.300 : en:Chapter 2
00:23:30.466 : en:Chapter 3
00:27:35.166 : en:Chapter 4
00:31:13.400 : en:Chapter 5
00:39:07.366 : en:Chapter 6
00:43:50.266 : en:Chapter 7
00:51:37.866 : en:Chapter 8
00:56:49.733 : en:Chapter 9
01:00:36.666 : en:Chapter 10
-

Скриншоты

Vi$itReal

Post 17-Mar-2020 14:05

[Quote]

Информация о шоу
Название: События прошедшей недели с Джоном Оливером
Оригинальное название: Last Week Tonight with John Oliver
Год выхода: 2020
Жанр: новости, сатира, комедия
Выпущено: США / HBO
В ролях: Джон Оливер и все-все-все
Описание: Аналитическое разговорное шоу HBO, в котором британский ведущий в лице Джона Оливера язвительно высмеивает события прошедшей недели.

Качество: WEB-DL 10800p
Перевод: Субтитры (hvblack)
Продолжительность: ~00:30:00
Файл
Формат: MKV
Видео: AVC (x264) | 1920x1080p | 29,970 fps | ~5600 kbps
Аудио: AAC | 48KHz | 2.0 (Front: L R) | ~64 kbps [Original]
Субтитры: Русские (SRT), Английские (SRT)
Реклама: Отсутствует

Список эпизодов

01. [16.02.2020] МедПомощь для всех
02. [23.02.2020] Моди
03. [01.03.2019] Коронавирус
04. [08.03.2019] Шерифы
05. [15.03.2019] ...
06. [29.03.2019] ...
...
-

MediaInfo

Общее
Уникальный идентификатор : 21926883020248048514586765577238343104 (0x107EF6CC9BC35CBF6DB08A6BB27FEDC0)
Полное имя : .../Last Week Tonight with John Oliver s07 WEB-DL 1080p/Last Week Tonight with John Oliver - s07e01 - MediCare for All.mkv
Формат : Matroska
Версия формата : Version 4 / Version 2
Размер файла : 1,19 Гбайт
Продолжительность : 29 м. 44 с.
Общий поток : 5745 Кбит/сек
Дата кодирования : UTC 2020-02-17 05:07:26
Программа кодирования : mkvmerge v31.0.0 ('Dolores In A Shoestand') 32-bit
Библиотека кодирования : libebml v1.3.6 + libmatroska v1.4.9
Видео
Идентификатор : 1
Формат : AVC
Формат/Информация : Advanced Video Codec
Профиль формата : [email protected]
Параметр CABAC формата : Да
Параметр ReFrames формата : 4 кадра
Идентификатор кодека : V_MPEG4/ISO/AVC
Продолжительность : 29 м. 43 с.
Битрейт : 5679 Кбит/сек
Ширина : 1920 пикселей
Высота : 1080 пикселей
Соотношение сторон : 16:9
Режим частоты кадров : Постоянный
Частота кадров : 29,970 (30000/1001) кадров/сек
Цветовое пространство : YUV
Субдискретизация насыщенности : 4:2:0
Битовая глубина : 8 бит
Тип развёртки : Прогрессивная
Бит/(Пиксели*Кадры) : 0.091
Размер потока : 1,18 Гбайт (99%)
Default : Да
Forced : Нет
Аудио
Идентификатор : 2
Формат : AAC
Формат/Информация : Advanced Audio Codec
Профиль формата : HE-AAC / LC
Идентификатор кодека : A_AAC
Продолжительность : 29 м. 44 с.
Битрейт : 64,0 Кбит/сек
Каналы : 2 канала
Расположение каналов : Front: L R
Частота : 48,0 КГц / 24,0 КГц
Частота кадров : 23,438 кадра/сек (1024 spf)
Метод сжатия : С потерями
Размер потока : 13,6 Мбайт (1%)
Default : Да
Forced : Нет
Текст
Идентификатор : 3
Формат : UTF-8
Идентификатор кодека : S_TEXT/UTF8
Идентификатор кодека/Информация : UTF-8 Plain Text
Продолжительность : 29 м. 25 с.
Битрейт : 122 бит/сек
Count of elements : 1086
Размер потока : 26,4 Кбайт (0%)
Язык : English
Default : Нет
Forced : Нет
-

Скриншоты

RelizMAN

Post 11-Mar-2020 05:35

[Quote]

Информация о фильме
Название: Импровизация
Год выпуска: 2020
Жанр: ТВ-Шоу, Юмор
Ведущий: Павел Воля
О фильме: «Импровизация» — это новое непредсказуемое комедийное шоу от Comedy Club Production. В нём нет сценария и всё, происходящее на сцене, придумывается участниками на ходу. Под управлением ведущего Павла Воли четыре комика и один звездный гость оказываются в самых странных ситуациях — и выбираются из них с юмором. Прежде, чем попасть на экран, четыре участника «Импровизации» (Арсений Попов, Дима Позов, Сергей Матвиенко и Антон Шастун) несколько лет совершенствовали этот формат на клубных вечеринках. Каждый выпуск шоу разбит на части, в которых действуют свои правила: например, в одной комики должны разговаривать только вопросами, в другой — ходят с завязанными глазами по комнате с мышеловками, в третьей — шутят с электрошокерами на руках, которые бьют их током. В каждом шоу к комикам присоединяется приглашенная звезда. Только в «Импровизации» можно заставить певицу Сати Казанову выслушивать, как комики дают интервью от её лица, Ольгу Бузову — подавать реплики, как суфлер, а Мигеля угадывать, кем он был в прошлой жизни. «Импровизация» — шоу для тех, кому надоел предсказуемый юмор и кто хочет посмотреть, каково комикам на сцене без сценария и заготовленных шуток. «Комедия импровизации — весьма распространенный формат в Европе, в Америке. В каждом вузе, в каждой школе есть импровизационная команда. При этом это традиционный жанр, он уходит корнями в итальянский театр масок», — говорит креативный продюсер шоу Стас Шеминов. Импровизация — вершина комедийного спорта, уважаемый жанр, которым мечтаю заниматься многие комики, но который требует постоянной практики. Участники «Импровизации» посвятили этому жанру несколько лет — и стали настоящими мастерами.
Выпущено: Россия
Студия: ТНТ, Comedy Club Production
Продолжительность: 1 х ~ 00:48:00
Перевод: Не требуется
Файл
Качество: WEBRip 720p
Видео: MPEG-4 AVC, ~ 3000 Кбит/с, 1280х720
Аудио: AC3, 2 ch, 192 Кбит/с

Скриншоты


Релиз от:

Vi$itReal

Post 08-Mar-2020 22:35

[Quote]

Информация о шоу
Название: События прошедшей недели с Джоном Оливером
Оригинальное название: Last Week Tonight with John Oliver
Год выхода: 2020
Жанр: новости, сатира, комедия
Выпущено: США / HBO
В ролях: Джон Оливер и все-все-все
Описание: Аналитическое разговорное шоу HBO, в котором британский ведущий в лице Джона Оливера язвительно высмеивает события прошедшей недели.

Качество: WEB-DL 10800p
Перевод: Субтитры (hvblack)
Продолжительность: ~00:30:00
Файл
Формат: MKV
Видео: AVC (x264) | 1920x1080p | 29,970 fps | ~5600 kbps
Аудио: AAC | 48KHz | 2.0 (Front: L R) | ~64 kbps [Original]
Субтитры: Русские (SRT), Английские (SRT)
Реклама: Отсутствует

Список эпизодов

01. [16.02.2020] МедПомощь для всех
02. [23.02.2020] Моди
03. [01.03.2019] Коронавирус
04. [08.03.2019] ...
05. [15.03.2019] ...
06. [29.03.2019] ...
...
-

MediaInfo

Общее
Уникальный идентификатор : 21926883020248048514586765577238343104 (0x107EF6CC9BC35CBF6DB08A6BB27FEDC0)
Полное имя : .../Last Week Tonight with John Oliver s07 WEB-DL 1080p/Last Week Tonight with John Oliver - s07e01 - MediCare for All.mkv
Формат : Matroska
Версия формата : Version 4 / Version 2
Размер файла : 1,19 Гбайт
Продолжительность : 29 м. 44 с.
Общий поток : 5745 Кбит/сек
Дата кодирования : UTC 2020-02-17 05:07:26
Программа кодирования : mkvmerge v31.0.0 ('Dolores In A Shoestand') 32-bit
Библиотека кодирования : libebml v1.3.6 + libmatroska v1.4.9
Видео
Идентификатор : 1
Формат : AVC
Формат/Информация : Advanced Video Codec
Профиль формата : [email protected]
Параметр CABAC формата : Да
Параметр ReFrames формата : 4 кадра
Идентификатор кодека : V_MPEG4/ISO/AVC
Продолжительность : 29 м. 43 с.
Битрейт : 5679 Кбит/сек
Ширина : 1920 пикселей
Высота : 1080 пикселей
Соотношение сторон : 16:9
Режим частоты кадров : Постоянный
Частота кадров : 29,970 (30000/1001) кадров/сек
Цветовое пространство : YUV
Субдискретизация насыщенности : 4:2:0
Битовая глубина : 8 бит
Тип развёртки : Прогрессивная
Бит/(Пиксели*Кадры) : 0.091
Размер потока : 1,18 Гбайт (99%)
Default : Да
Forced : Нет
Аудио
Идентификатор : 2
Формат : AAC
Формат/Информация : Advanced Audio Codec
Профиль формата : HE-AAC / LC
Идентификатор кодека : A_AAC
Продолжительность : 29 м. 44 с.
Битрейт : 64,0 Кбит/сек
Каналы : 2 канала
Расположение каналов : Front: L R
Частота : 48,0 КГц / 24,0 КГц
Частота кадров : 23,438 кадра/сек (1024 spf)
Метод сжатия : С потерями
Размер потока : 13,6 Мбайт (1%)
Default : Да
Forced : Нет
Текст
Идентификатор : 3
Формат : UTF-8
Идентификатор кодека : S_TEXT/UTF8
Идентификатор кодека/Информация : UTF-8 Plain Text
Продолжительность : 29 м. 25 с.
Битрейт : 122 бит/сек
Count of elements : 1086
Размер потока : 26,4 Кбайт (0%)
Язык : English
Default : Нет
Forced : Нет
-

Скриншоты

RelizMAN

Post 07-Mar-2020 00:05

[Quote]

Информация о фильме
Название: Новый Comedy Club
Год выпуска: 2020
Жанр: ТВ-шоу, юмор
В ролях: Гарик Мартиросян, Павел Воля, Тимур Батрутдинов, Александр Ревва, Гавриил Гордеев, Олег Верещагин (I), Дмитрий Сорокин, Зураб Матуа, Андрей Аверин, Алексей Лихницкий, Роман Юнусов, Антон Лирник, Андрей Молочный, Александр Незлобин, Дмитрий Хрусталёв, Виктор Васильев (III), Сергей Бессмертный, Игорь Меерсон, Семён Слепаков
О фильме: Как всегда, Comedy Club собрал все самое смешное, чтобы оставаться самым крутым юмористическим шоу на телевидении. Только самые лучшие номера от резидентов "Сomedy Сlub". Выдержанный юмор, проверенный временем и многомиллионной телевизионной аудиторией. Вы помните, что теперь Новый Comedy Club – больше чем просто шоу на сцене? Камеры готовы? Музыканты готовы? Зрители готовы? Поехали!
Выпущено: Россия
Студия: ТНТ
Продолжительность: 1 x ~ 00:48:30
Перевод: Не требуется
Файл
Качество: WEBRip 720p
Видео: MPEG-4 AVC, ~ 3000 Кбит/с, 1280x720
Аудио: AC3, 2 ch, 192 Кбит/с

Скриншоты

Раздача ведётся путём добавления новых серий

Внимание! Раздача ведётся путём добавления новых серий; при каждом добавлении создаётся новый торрент.
Чтобы начать докачку новой серии, пользователям необходимо сделать следующее:
1. Остановить скачивание;
2. Удалить старый торрент у себя из клиента (старые серии удалять не надо);
3. Скачать новый торрент и запустить его у себя в клиенте вместо старого, при этом указать клиенту путь в старую папку куда и должно происходить скачивание новых серий. Ваш клиент при этом должен произвести хеширование (проверку) старой папки и будет докачивать только те серии, которых у вас ещё нет. Старые серии при этом не удаляются, а продолжают раздаваться! Eсли вы уже удалили старые серии, то предотвратить повторную закачку старых серий можно, отжав галочку в соответствующих местах при запуске нового торрента.

Релиз от:
 

Current time is: 09-Apr 04:10

All times are UTC + 3