Search found 135 matches

Author Message

Vi$itReal

Post 05-Apr-2020 23:35

[Quote]

Информация
Оригинальное название: Вечерний квартал
Год выпуска: 2020
Жанр: Юмористическое шоу, концерт, сатира
Выпущено: Украина, Студия 95 квартал
Режиссер: Студия 95 квартал
В ролях: Юрий Великий, Юрий Крапов, Елена Кравец, Евгений Кошевой, Сергей Казанин, Александр Пикалов, Юрий Корявченков, Аркадий Лапухин
Описание: Однажды веселые ребята из "95-го квартала" решили отметить свой переезд из родного Кривого Рога в Киев, а заодно 10-летие команды новым шоу. Коллектив подобрался душевный, "с огоньком", гости - сплошь знаменитые, а столичная публика - щедрая на аплодисменты. Так родилась самая смешная и популярная передача на отечественном телевидении - "Вечерний квартал". Идея шоу проста: в городе N есть некий модный квартал, в котором тусуются девять смешных жителей. Остальные просто приходят к ним в гости. Правда, гости не совсем обычные: среди них встречаются и богатые, и знаменитые, политики, и дизайнеры, и поп-звезды. Главный критерий - наличие здорового чувства юмора. Без него - никак, так как гостей здесь встречают не хлебом-солью, а розыгрышами и подколками, а те в свою очередь участвуют в скетчах и исполняют музыкальные или танцевальные номера.

Содержание

Как там ваши посадки? Лукашенко дает совет Зеленскому
А где посадки, где? Весна давно в календаре
Порошенко после увольнения Рябошапки - Политическое дискавери
Отец дождался момента, когда сын съехал из дома
Звездопляски со Златой Огневич на Сербском телевидиении
Голые и смешные с Юрием Горбуновым
Даже коронавирус гуляет, а мы дома сидим! Разговор мужа с женой
Этой фигней управлять невозможно! Немцы приехали ПОДНИМАТЬ Укрзализныцю
Жена изменила мужу с Александром Усиком
Тараканы в столовой Верховной Рады
Вот если бы все назад отмотать - финальная песня
Качество: WEBRip
Видео: XviD build 73, 720x400 (16:9), 25.000 fps, 1499 Kbps (0.208 bit/pixel)
Аудио: 48.0 kHz, MP3, 2/0 ch, 192 kbps
Продолжительность: 01:31:37
Перевод: Не требуется
Cубтитры: нет

Скриншоты



MediaInfo

General
Complete name : D:RazdachiVechernij.Kvartal.124.WEBRip.GeneralFilm.avi
Format : AVI
Format/Info : Audio Video Interleave
File size : 1.09 GiB
Duration : 1 h 31 min
Overall bit rate : 1 701 kb/s
Writing application : VirtualDubMod 1.5.10.3 | www.virtualdub-fr.org || (build 2550/release)
Writing library : VirtualDubMod build 2550/release
Video
ID : 0
Format : MPEG-4 Visual
Format profile : Advanced [email protected]
Format settings : BVOP1 / Custom Matrix
Format settings, BVOP : 1
Format settings, QPel : No
Format settings, GMC : No warppoints
Format settings, Matrix : Custom
Codec ID : XVID
Codec ID/Hint : XviD
Duration : 1 h 31 min
Bit rate : 1 499 kb/s
Width : 720 pixels
Height : 400 pixels
Display aspect ratio : 16:9
Frame rate : 25.000 FPS
Color space : YUV
Chroma subsampling : 4:2:0
Bit depth : 8 bits
Scan type : Progressive
Compression mode : Lossy
Bits/(Pixel*Frame) : 0.208
Stream size : 982 MiB (88%)
Writing library : XviD 73
Audio
ID : 1
Format : MPEG Audio
Format version : Version 1
Format profile : Layer 3
Codec ID : 55
Codec ID/Hint : MP3
Duration : 1 h 31 min
Bit rate mode : Constant
Bit rate : 192 kb/s
Channel(s) : 2 channels
Sampling rate : 48.0 kHz
Frame rate : 41.667 FPS (1152 SPF)
Compression mode : Lossy
Stream size : 126 MiB (11%)
Alignment : Aligned on interleaves
Interleave, duration : 40 ms (1.00 video frame)
Interleave, preload duratio : 504 ms
Writing library : LAME3.99r
Encoding settings : -m s -V 4 -q 2 -lowpass 18.6 -b 192
Релиз от:

Vi$itReal

Post 29-Mar-2020 21:05

[Quote]

Информация о фильме
Название: Концерт Юлии Ахмедовой. Harassment (Нет Харассменту)
Год выхода: 2020
Жанр: ТВ-шоу, юмор
Ведущий: Юлия Ахмедова
О фильме:
Первый сольный концерт Юлии Ахмедовой, в рамках которого она выскажет свою точку зрения на самые актуальные проблемы. Юлия перенесется на 15 лет назад в Воронеж и вспомнит, как ее преследовал извращенец на велосипеде, и как ее отец устраивал анти-маньячные учения. Даст пару советов для девушек по сохранению фигуры, которые она подсмотрела у дальнобойщиков. Расскажет, как справится с навязчивыми мыслями с помощью тетриса и какие побочные эффекты ждут мужчин и женщин после приема антидепрессантов. Объяснит на конкретных примерах — что такое метод выноса мозга, метод игнора и метод слез, а заодно научит применять их в отношениях с мужчинами. Вспомнит как перевозила через американскую границу обычную советскую клизму для своей бабушки и к каким последствиям это привело. И расскажет одну шутку, за которую ей стыдно перед родителями.
Страна: Россия
Студия: ТНТ, Comedy Club Production
Продолжительность: ~ 00:45:00
Язык: Русский
Релиз группы: | Автор релиза:
Премьера: 29 марта 2020 года (ТНТ)
Примечание: Без рекламы
Файл
Кодек: XviD
Качество: SATRip
Видео: XviD, ~ 1700 Кбит/с, 720x400
Звук: МР3, 2 ch, 192 Кбит/с
Семпл

Скриншоты

Vi$itReal

Post 29-Mar-2020 15:20

[Quote]

Информация
Оригинальное название: Вечерний квартал
Год выпуска: 2020
Жанр: Юмористическое шоу, концерт, сатира
Выпущено: Украина, Студия 95 квартал
Режиссер: Студия 95 квартал
В ролях: Юрий Великий, Юрий Крапов, Елена Кравец, Евгений Кошевой, Сергей Казанин, Александр Пикалов, Юрий Корявченков, Аркадий Лапухин
Описание: Однажды веселые ребята из "95-го квартала" решили отметить свой переезд из родного Кривого Рога в Киев, а заодно 10-летие команды новым шоу. Коллектив подобрался душевный, "с огоньком", гости - сплошь знаменитые, а столичная публика - щедрая на аплодисменты. Так родилась самая смешная и популярная передача на отечественном телевидении - "Вечерний квартал". Идея шоу проста: в городе N есть некий модный квартал, в котором тусуются девять смешных жителей. Остальные просто приходят к ним в гости. Правда, гости не совсем обычные: среди них встречаются и богатые, и знаменитые, политики, и дизайнеры, и поп-звезды. Главный критерий - наличие здорового чувства юмора. Без него - никак, так как гостей здесь встречают не хлебом-солью, а розыгрышами и подколками, а те в свою очередь участвуют в скетчах и исполняют музыкальные или танцевальные номера.

Содержание

MOZGI - НА КАРАНТИНЕ
Последний рабочий день Андрея Богдана
Варвара Кошевая и мальчик с таким себе лицом - Монолог Евгения Кошевого
Песня ИДЕАЛЬНОГО Мужика 8 Марта
Женское Дискавери
Клиника искусственного оплодотворения чужих жен
Творожок - Голопузый шоу балет Натальи Могилевской
Пошел он на хрен, отмена! ПРИКОЛ В СУПЕРМАРКЕТЕ
Валерий Жидков: Коронавирус показал сколько среди нас действительно больных людей
Зашкварка Потапа. Специальные гости - Павло Зібров, Евгений Кошевой, Позитив
Одинокая дама и полиция диалога 8 Марта
Вона з України - финальная песня
Качество: WEBRip
Видео: XviD build 73, 720x400 (16:9), 25.000 fps, 1548 Kbps (0.215 bit/pixel)
Аудио: 48.0 kHz, MP3, 2/0 ch, 192 kbps
Продолжительность: 01:29:02
Перевод: Не требуется
Cубтитры: нет

Скриншоты


MediaInfo

General
Complete name : D:RazdachiVechernij.Kvartal.123.WEBRip.GeneralFilm.avi
Format : AVI
Format/Info : Audio Video Interleave
File size : 1.09 GiB
Duration : 1 h 29 min
Overall bit rate : 1 750 kb/s
Writing application : VirtualDubMod 1.5.10.3 | www.virtualdub-fr.org || (build 2550/release)
Writing library : VirtualDubMod build 2550/release
Video
ID : 0
Format : MPEG-4 Visual
Format profile : Advanced [email protected]
Format settings : BVOP1 / Custom Matrix
Format settings, BVOP : 1
Format settings, QPel : No
Format settings, GMC : No warppoints
Format settings, Matrix : Custom
Codec ID : XVID
Codec ID/Hint : XviD
Duration : 1 h 29 min
Bit rate : 1 548 kb/s
Width : 720 pixels
Height : 400 pixels
Display aspect ratio : 16:9
Frame rate : 25.000 FPS
Color space : YUV
Chroma subsampling : 4:2:0
Bit depth : 8 bits
Scan type : Progressive
Compression mode : Lossy
Bits/(Pixel*Frame) : 0.215
Stream size : 986 MiB (88%)
Writing library : XviD 73
Audio
ID : 1
Format : MPEG Audio
Format version : Version 1
Format profile : Layer 3
Codec ID : 55
Codec ID/Hint : MP3
Duration : 1 h 29 min
Bit rate mode : Constant
Bit rate : 192 kb/s
Channel(s) : 2 channels
Sampling rate : 48.0 kHz
Frame rate : 41.667 FPS (1152 SPF)
Compression mode : Lossy
Stream size : 122 MiB (11%)
Alignment : Aligned on interleaves
Interleave, duration : 40 ms (1.00 video frame)
Interleave, preload duratio: 504 ms
Writing library : LAME3.99r
Encoding settings : -m s -V 4 -q 2 -lowpass 18.6 -b 192
Релиз от:

Vi$itReal

Post 28-Mar-2020 22:35

[Quote]

Информация о фильме
Название: КВН-2020. Высшая лига. 1/8 финала. Игра пятая
Год выхода: 2020
Жанр: Юмор
Режиссер: Светлана Маслякова
Ведущий: Александр Масляков
О фильме:
Что такое КВН - это популярные юмористические игры, в которых команды различных коллективов (учебных заведений, вузов, предприятий и т. д.) соревнуются в импровизациях на заданные темы, разыгрывании заранее заготовленных сцен, остроумных ответах на вопросы и т. д.
Команды: Сборная Снежногорска, Мурманск - столица Арктики; Москва - «Университет МФЮА – Город Питон»; Новосибирск - «Я обиделась» сборная НГУ, Сочи - «Планета Сочи».
Страна: Россия
Студия: АМИК, ОАО «Первый канал»
Продолжительность: 01:32:07
Язык: Русский
Релиз группы: | Автор релиза:
Премьера: 28 марта 2020 года (Первый канал)
Примечание: Без рекламы
Файл
Кодек: XviD
Качество: SATRip
Видео: XviD, ~ 1700 Кбит/с, 720x400
Звук: МР3, 2 ch, 192 Кбит/с

Скриншоты

Vi$itReal

Post 16-Feb-2020 20:35

[Quote]

Информация о фильме
Название: КВН-2020. Высшая лига
Год выпуска: 2020
Жанр: Юмор
Ведущий: Александр Масляков мл.
О фильме: Что такое КВН - знают, без сомнения, все. В КВН играют во всем мире, это прежде всего молодежная игра. Постоянные конкурсные задания - "Визитная карточка", "Разминка", "Конкурс капитанов", "Музыкальный конкурс", "Домашнее задание". Игру команд оценивает профессиональное жюри - люди, у которых с чувством юмора все в порядке, многие из них раньше сами играли в КВН. Среди членов жюри были Константин Эрнст, Леонид Парфенов, Юлий Гусман, Леонид Ярмольник, Валдис Пельш, Сергей Шолохов, Геннадий Хазанов и другие. Кроме самих игр проводятся ежегодные встречи: фестиваль команд КВН (с 1990 г., семь раз фестиваль проходил в г.Сочи), музыкальный фестиваль КВН, летний кубок КВН, международные товарищеские игры в КВН. Сборная КВН играет со сборными других стран. Уже состоялись игры между сборной КВН и сборными Америки, Австралии, Израиля... Игра в КВН для многих становится профессией, а многие благодаря игре связывают жизнь с искусством. Из КВН "вышли": Леонид Якубович, Михаил Марфин, Татьяна Лазарева, Олег Филимонов, Юлий Гусман и многие другие.
Выпущено: Россия
Студия: АМИК, Первый канал
Продолжительность: 1 х ~ 01:11:09
Перевод: Не требуется
Файл
Качество: WEB-DLRip
Видео: XviD, ~ 1600 Кбит/с, 720x400
Аудио: AC3, 2 ch, 192 Кбит/с

Скриншоты


Релиз от:

Vi$itReal

Post 27-Jan-2020 15:35

[Quote]

Информация
Оригинальное название: Открытый микрофон
Год выпуска: 2019
Жанр: ТВ-шоу, юмор
Описание: «Открытый микрофон» — это не просто шоу талантов, а способ найти новых героев в юморе. Победитель сезона становится новым постоянным участником шоу StandUpна телеканале ТНТ. Монологи стендап-комиков в «Открытом микрофоне» почти всегда основаны на реальной жизни и переживаниях. В этом шоу нет запретных тем — только правда, только юмор, только стендап.
Выпущено: Россия, ТНТ, Comedy Club Production
Продолжительность: 19 х ~ 00:46:00
Язык: Русский
Автор релиза: 25Kuzmich


Файл
Качество: WEBRip
Видео: XviD, ~ 1600 Кбит/с, 720x400
Аудио: AC3, 2 ch, 192 Кбит/с

Скриншоты


Vi$itReal

Post 03-Jan-2020 21:35

[Quote]

Информация о фильме
Оригинальное название: Вечерний квартал
Год выпуска: 2019
Жанр: Юмористическое шоу, концерт, сатира
Выпущено: Украина, Студия 95 квартал
Режиссер: Студия 95 квартал
В ролях: Юрий Великий, Юрий Крапов, Елена Кравец, Евгений Кошевой, Сергей Казанин, Александр Пикалов, Юрий Корявченков, Аркадий Лапухин
О фильме:
Однажды веселые ребята из "95-го квартала" решили отметить свой переезд из родного Кривого Рога в Киев, а заодно 10-летие команды новым шоу. Коллектив подобрался душевный, "с огоньком", гости - сплошь знаменитые, а столичная публика - щедрая на аплодисменты. Так родилась самая смешная и популярная передача на отечественном телевидении - "Вечерний квартал". Идея шоу проста: в городе N есть некий модный квартал, в котором тусуются девять смешных жителей. Остальные просто приходят к ним в гости. Правда, гости не совсем обычные: среди них встречаются и богатые, и знаменитые, политики, и дизайнеры, и поп-звезды. Главный критерий - наличие здорового чувства юмора. Без него - никак, так как гостей здесь встречают не хлебом-солью, а розыгрышами и подколками, а те в свою очередь участвуют в скетчах и исполняют музыкальные или танцевальные номера.

Содержание

MONATIK - Открытие Новогоднего Вечернего Квартала 2020
Трамп, Порошенко и Кличко поздравляют Зеленского с Новым Годом
Весна прошла давно, еще не сел никто!
Как Коломойский Квартал покупал
Чиновник за 5 минут до проверки НАБУ - Новогоднее Дискавери
Новый муж сценической жены Зеленского решил устроить разборки с её бывшим
Кошевой vs DZIDZIO - Оперный Батл
Перепись пьяного населения 1 января
Жена изменила мужу с Александром Усиком
Песня про ЗОЖ и Новый Год
Етить-колотить! Творческий вечер по пьяни
Хор Коломойского - песня извинение перед Гонтаревой
Добровольная тюрьма для девушек - Валерий Жидков
MONATIK - Vitamin Буээ
Что такое АВАКОВщина и когда сестры Кличко сменили пол? Шоу Интеллектуал 2050
Хор Веревки поет почти по трезвяку
Здесь никогда не бывает бодуна - Снежная Королева 15 лет спустя
Dr. Alban угадывает предметы из 90-х
Батл - Вечерний Квартал vs Женский Квартал vs Лига Смеха
Оля Полякова - Новогодний Джингл
Жена застукала мужа депутата с проститутками
Тина Кароль - Новогодний Джингл
Жена выпытывает у Зеленского государственные тайны
Квартет по трезвяку
С Новым Годом, Украина! Финальная песня
Качество: WEBRip
Видео: XviD build 73, 720x400 (16:9), 25.000 fps, ~ 1740 Kbps (0.244 bit/pixel)
Аудио: 48.0 kHz, AC3, 2/0 ch, 192 kbps
Продолжительность: 2 x ~ 01:30:00
Перевод: Не требуется
Cубтитры: нет

Скриншоты



MediaInfo

General
Complete name : D:RazdachiVechernij.Kvartal.122.WEBRip.GeneralFilme01.Kvartal.avi
Format : AVI
Format/Info : Audio Video Interleave
File size : 1.37 GiB
Duration : 1 h 39 min
Overall bit rate : 1 960 kb/s
Writing application : VirtualDubMod 1.5.10.3 | www.virtualdub-fr.org || (build 2550/release)
Writing library : VirtualDubMod build 2550/release
Video
ID : 0
Format : MPEG-4 Visual
Format profile : Advanced [email protected]
Format settings : BVOP1 / Custom Matrix
Format settings, BVOP : 1
Format settings, QPel : No
Format settings, GMC : No warppoints
Format settings, Matrix : Custom
Codec ID : XVID
Codec ID/Hint : XviD
Duration : 1 h 39 min
Bit rate : 1 759 kb/s
Width : 720 pixels
Height : 400 pixels
Display aspect ratio : 16:9
Frame rate : 25.000 FPS
Color space : YUV
Chroma subsampling : 4:2:0
Bit depth : 8 bits
Scan type : Progressive
Compression mode : Lossy
Bits/(Pixel*Frame) : 0.244
Stream size : 1.23 GiB (90%)
Writing library : XviD 73
Audio
ID : 1
Format : AC-3
Format/Info : Audio Coding 3
Commercial name : Dolby Digital
Codec ID : 2000
Duration : 1 h 39 min
Bit rate mode : Constant
Bit rate : 192 kb/s
Channel(s) : 2 channels
Channel layout : L R
Sampling rate : 48.0 kHz
Frame rate : 31.250 FPS (1536 SPF)
Compression mode : Lossy
Stream size : 137 MiB (10%)
Alignment : Split across interleaves
Interleave, duration : 40 ms (1.00 video frame)
Interleave, preload duratio : 500 ms
Service kind : Complete Main
Релиз от:

Vi$itReal

Post 01-Jan-2020 01:10

[Quote]

Информация о фильме
Название: Однажды в России. Новогодний выпуск
Год выхода: 2019
Жанр: ТВ-шоу, юмор
В ролях: Игорь Ласточкин, Ирина Чеснокова, Михаил Стогниенко, Давид Цаллаев, Заур Байцаев, Теймураз Тания, Екатерина Моргунова, Максим Киселёв, Денис Дорохов, Александр Пташенчук, Азамат Мусагалиев, Ольга Картункова
О фильме:
Новый год в России - это отдельный жанр, в котором присутствуют элементы комедии, триллера и даже фантастики. Актеры шоу покажут самые невероятные ситуации, с которыми столкнулись жители нашей страны во время встречи главного праздника в году.

Страна: Россия
Студия: ТНТ, Comedy Club Production
Продолжительность: ~ 00:45:00
Язык: Русский
Релиз группы: | Автор релиза:
Премьера: 31 декабря 2019 года (ТНТ)
Примечание: Без рекламы
Файл
Кодек: XviD
Качество: SATRip
Видео: XviD, ~ 1700 Кбит/с, 720x400
Звук: MP3, 2 ch, 192 Кбит/с

Скриншоты

Vi$itReal

Post 01-Jan-2020 01:05

[Quote]

Год: 2019
Страна: Россия
Жанр: Авторская песня
Исполнитель: Эдуард Суровый
Альбом: И поэтому всё так произошло...
Продолжительность: 00:34:40
Формат/Кодек: FLAC (tracks)
Битрейт аудио: Lossless
Официальный сайт
Связанные релизы

Трек-лист

Disc 01 (21 / 18:30)
01. Приезжайте в Роттердам [0:18]
02. Если долго смотреть на охранника [0:45]
03. Невнятная [0:58]
04. Я прочитала в газэте [0:45]
05. Улетай, комар Евгений [1:14]
06. В лобное место [0:49]
07. На Эльбрусе [0:16]
08. Пошли вон из ЦУМа [1:08]
09. А я была буха [1:43]
10. Подпись деда [0:41]
11. Человек-говно [0:21]
12. От гимнастов Дю Солей [0:55]
13. Давно на палочке [0:34]
14. Яша-лава [1:04]
15. Молекула Ира [0:31]
16. Прильнул я к уху Нины [1:08]
17. К литру литр [0:33]
18. Мысли Бузовой [0:39]
19. Всё, спи жена [1:00]
20. Про Париж и Саратовское СИЗО [1:13]
21. Философская [1:57]
Disc 02 (21 / 16:10)
01. Я хочу сибаса [1:05]
02. У меня разлетелось хлебало [0:29]
03. Шоколадный глаз [0:38]
04. Русская народная кавказская [1:06]
05. С ручейком [0:34]
06. Путин и коала [0:22]
07. Без Дим [0:36]
08. Позитивная [0:29]
09. Не теребите Клинтон [0:48]
10. Пёс да лис [0:23]
11. Каналу Первому [0:43]
12. Интеллигентная [1:02]
13. Эпическая [0:48]
14. Песня про интрижку [2:07]
15. Вертел на кую я [0:35]
16. Про слона [0:47]
17. Отца сало [0:45]
18. Романтическая [0:39]
19. Про тупого охранника [0:41]
20. Ищу во мху енота [1:00]
21. Червяк Анатолий [0:32]

Vi$itReal

Post 01-Jan-2020 01:05

[Quote]

Информация о фильме
Название: Студия Союз. Новогодний выпуск
Год выхода: 2019
Жанр: ТВ-шоу, юмор, импровизация
Ведущий: Кирилл Коковкин, Айдар Гараев, Виктор Щетков, Александр Алымов, Артем Муратов, Елена Гущина
В ролях: Баста, Нурлан Сабуров
О фильме:
Новогодний выпуск шоу «Студия СОЮЗ», в гостях Баста и Нурлан Сабуров, в шоу они будут меряться музыкальностью, чтобы сделать зрителю очень смешно. По задумке сценаристов, на шоу работают постоянные ведущие, а также регулярно приглашаются другие звезды ТНТ. Их задача: обсудить и максимально удачно высмеять популярную в данный момент песню. На обсуждение выносится все до мелочей: текст, музыка, манера исполнения и другие аспекты музыкального выступления.

Страна: Россия
Студия: ТНТ, Comedy Club Production
Продолжительность: ~ 00:45:00
Язык: Русский
Релиз группы: | Автор релиза:
Премьера: 31 декабря 2019 года (ТНТ)
Примечание: Без рекламы
Файл
Кодек: XviD
Качество: SATRip
Видео: XviD, ~ 1700 Кбит/с, 720x400
Звук: MP3, 2 ch, 192 Кбит/с

Скриншоты

Vi$itReal

Post 01-Jan-2020 01:05

[Quote]

Оригинальное название: Уральские Пельмени
Год выпуска: 2019
Жанр: ТВ-шоу, юмор
Выпущено: Россия, СТС
В ролях: Дмитрий Брекоткин, Сергей Ершов, Сергей Исаев, Сергей Калугин, Вячеслав Мясников, Александр Попов, Андрей Рожков, Дмитрий Соколов (V), Максим Ярица, Юлия Михалкова, Илана Юрьева, Ксения Корнева
О фильме: Когда праздничная ночь начинается вечером, а заканчивается через 10 дней! Когда в подарок покупаешь не то, что надо, а то, что осталось в магазине! Когда вместо свиньи приходит крыса, и это нормально! Тогда наступает новогодняя программа «Ёлка, дети, два стола»!
Качество: SATRip
Видео: XviD, 1800 Кбит/с, 720x400
Аудио: MP3, 2 ch, 192 Кбит/с
Продолжительность: 65 минут
Язык: Русский

Скриншоты

Vi$itReal

Post 31-Dec-2019 23:20

[Quote]

Информация о фильме
Название: Comedy Club. Новогодний выпуск-2020. Часть 2
Год выхода: 2020
Жанр: ТВ-шоу, юмор
В ролях: Гарик Мартиросян, Павел Воля, Тимур Батрутдинов, Александр Ревва, Гавриил Гордеев, Олег Верещагин (I), Дмитрий Сорокин, Зураб Матуа, Андрей Аверин, Алексей Лихницкий, Роман Юнусов, Антон Лирник, Андрей Молочный, Александр Незлобин, Дмитрий Хрусталёв, Виктор Васильев (III), Сергей Бессмертный, Игорь Меерсон, Семён Слепаков
О фильме:
Лучшее пятничное шоу страны приглашает тебя стать королем вечеринки в специальном одноименном выпуске! Радуйся! Весь год ты вёл себя хорошо! Поэтому лови приглашение на самую весёлую вечеринку в загородном доме. Резиденты Comedy Club и звёзды шоу-бизнеса, игры, счастье, музыка, танцы, поздравления - это будет эпично. Новогодне. Вечериночно. Незабываемо. Дветысячидвадцатно.

Страна: Россия
Студия: ТНТ, Comedy Club Production
Продолжительность: ~ 00:47:00
Язык: Русский
Релиз группы: | Автор релиза:
Премьера: 01 января 2020 года (ТНТ)
Примечание: Без рекламы
Файл
Кодек: XviD
Качество: SATRip
Видео: XviD, ~ 1700 Кбит/с, 720x400
Звук:
b]XviD, ~ 1700 Кбит/с, 720x400
Звук: MP3, 2 ch, 192 Кбит/с

Скриншоты

Vi$itReal

Post 31-Dec-2019 23:20

[Quote]

Информация о фильме
Название: Comedy Club. Новогодний выпуск-2020. Часть 1
Год выхода: 2019
Жанр: ТВ-шоу, юмор
В ролях: Гарик Мартиросян, Павел Воля, Тимур Батрутдинов, Александр Ревва, Гавриил Гордеев, Олег Верещагин (I), Дмитрий Сорокин, Зураб Матуа, Андрей Аверин, Алексей Лихницкий, Роман Юнусов, Антон Лирник, Андрей Молочный, Александр Незлобин, Дмитрий Хрусталёв, Виктор Васильев (III), Сергей Бессмертный, Игорь Меерсон, Семён Слепаков
О фильме:
Лучшее пятничное шоу страны приглашает тебя стать королем вечеринки в специальном одноименном выпуске! Радуйся! Весь год ты вёл себя хорошо! Поэтому лови приглашение на самую весёлую вечеринку в загородном доме. Резиденты Comedy Club и звёзды шоу-бизнеса, игры, счастье, музыка, танцы, поздравления - это будет эпично. Новогодне. Вечериночно. Незабываемо. Дветысячидвадцатно.

Страна: Россия
Студия: ТНТ, Comedy Club Production
Продолжительность: ~ 00:40:00
Язык: Русский
Релиз группы: | Автор релиза:
Премьера: 31 декабря 2019 года (ТНТ)
Примечание: Без рекламы
Файл
Кодек: XviD
Качество: SATRip
Видео: XviD, ~ 1700 Кбит/с, 720x400
Звук: MP3, 2 ch, 192 Кбит/с

Скриншоты

Vi$itReal

Post 31-Dec-2019 16:05

[Quote]

Информация о фильме
Название: Comedy Woman. Новогодний выпуск
Год выхода: 2019
Жанр: ТВ-шоу, юмор
Режиссер: Давид Цаллаев
В ролях: Наталья Еприкян, Екатерина Скулкина, Екатерина Варнава, Мария Кравченко (I), Полина Сибагатуллина, Татьяна Морозова, Надежда Сысоева, Надежда Ангарская, Марина Федункив
О фильме:
В специальном новогоднем выпуске актеры шоу предстанут в образах героев "Иронии судьбы", споют песню, посвященную Крысе - символу будущего года, и встретят Новый год в условиях вечной мерзлоты, присоединившись к женщинам-полярницам. А в самом конце праздничного выпуска Наталья Андреевна перевоплотится в гадалку и расскажет, что нас всех ждет в 2020 году. Больше всех ее предсказания заинтересуют президента Российской Федерации.

Страна: Россия
Студия: Телеканал ТНТ, Comedy Club Production
Продолжительность: ~ 00:46:00
Язык: Русский
Релиз группы: | Автор релиза:
Премьера: 31 декабря 2019 года (ТНТ)
Примечание: Без рекламы
Файл
Кодек: XviD
Качество: SATRip
Видео: XviD, ~ 1700 Кбит/с, 720x400
Звук: MP3, 2 ch, 192 Кбит/с

Скриншоты

Vi$itReal

Post 31-Dec-2019 16:05

[Quote]

Информация о фильме
Название: Импровизация. Новогодний выпуск
Год выхода: 2019
Жанр: ТВ-шоу, юмор
Ведущий: Павел Воля
В ролях: Арсений Попов, Дмитрий Позов, Сергей Матвиенко, Антон Шастун
О фильме:
Гости новогоднего выпуска - певица Лена Темникова и резидент Comedy Club Илья Соболев. Вместе с актерами шоу они разделятся на две команды и сядут за стол, чтобы как следует отметить наступление 2020 года. На столе полный порядок - шампанское, мандарины, оливье и прочие атрибуты главного праздника в году. Шокеры и мышеловки, как и положено, тоже в деле. Под бой курантов Лена Темникова, Илья Соболев, Дмитрий Позов, Арсений Попов, Сергей Матвиенко, Антон Шастун и, конечно, Павел Воля споют главный новогодний хит про елочку.

Страна: Россия
Студия: ТНТ, Comedy Club Production
Продолжительность: ~ 00:45:00
Язык: Русский
Релиз группы: | Автор релиза:
Премьера: 31 декабря 2019 года (ТНТ)
Примечание: Без рекламы
Файл
Кодек: XviD
Качество: SATRip
Видео: XviD, ~ 1700 Кбит/с, 720x400
Звук: MP3, 2 ch, 192 Кбит/с

Скриншоты

 

Current time is: 10-Apr 04:56

All times are UTC + 3