Search found 500 matches

Author Message

RelizMAN

Post 05-Apr-2020 22:50

[Quote]

Информация о фильме
Название: Уэльс: дикая земля
Оригинальное название: Wales: The Land of the Wild
Год выхода: 2018
Жанр: Документальный, природа, флора, фауна
Режиссер: Энн Галлахер
О фильме:
Этот сериал, снятый в течение года, запечатлел разнообразную дикую природу Уэльса и потрясающие пейзажи: от суровых гор на севере до колоний морских птиц у западного побережья.

Страна: Великобритания
Студия: Plimsoll Productions Ltd MMXIX
Продолжительность: 00:47:53
Перевод: Профессиональный (одноголосый закадровый) SDI Media
Файл
Кодек: AVC/H.264
Качество: HDTV 1080i
Видео: 1920x1080 (16:9), 25 fps, AVC (H.264), [email protected], 6574 kbps, 0.127 bit/pixel
Звук:
Русский 48 kHz, MPEG Layer 2, 2 ch, ~160.00 kbps avg
Английский 48 kHz, MPEG Layer 2, 2 ch, ~160.00 kbps avg
Семпл

MediaInfo

Complete name : F:НаладкиУэльс_дикая земля1. Возвращение солнца.ts
Format : MPEG-TS
File size : 2.43 GiB
Duration : 47 min 53 s
Overall bit rate mode : Variable
Overall bit rate : 7 255 kb/s
Video
ID : 305 (0x131)
Menu ID : 17105 (0x42D1)
Format : AVC
Format/Info : Advanced Video Codec
Format profile : [email protected]
Format settings : CABAC / 4 Ref Frames
Format settings, CABAC : Yes
Format settings, Reference : 4 frames
Format settings, GOP : M=4, N=24
Codec ID : 27
Duration : 47 min 53 s
Bit rate : 6 574 kb/s
Width : 1 920 pixels
Height : 1 080 pixels
Display aspect ratio : 16:9
Frame rate : 25.000 FPS
Standard : Component
Color space : YUV
Chroma subsampling : 4:2:0
Bit depth : 8 bits
Scan type : Interlaced
Scan type, store method : Separated fields
Scan order : Top Field First
Bits/(Pixel*Frame) : 0.127
Stream size : 2.20 GiB (91%)
Color range : Limited
Color primaries : BT.709
Transfer characteristics : BT.709
Matrix coefficients : BT.709
Audio #1
ID : 405 (0x195)
Menu ID : 17105 (0x42D1)
Format : MPEG Audio
Format version : Version 1
Format profile : Layer 2
Codec ID : 3
Duration : 47 min 53 s
Bit rate mode : Constant
Bit rate : 160 kb/s
Channel(s) : 2 channels
Sampling rate : 48.0 kHz
Frame rate : 41.667 FPS (1152 SPF)
Compression mode : Lossy
Stream size : 54.8 MiB (2%)
Language : Russian
Audio #2
ID : 425 (0x1A9)
Menu ID : 17105 (0x42D1)
Format : MPEG Audio
Format version : Version 1
Format profile : Layer 2
Codec ID : 3
Duration : 47 min 53 s
Bit rate mode : Constant
Bit rate : 160 kb/s
Channel(s) : 2 channels
Sampling rate : 48.0 kHz
Frame rate : 41.667 FPS (1152 SPF)
Compression mode : Lossy
Stream size : 54.8 MiB (2%)
Language : English

Содержание

01. Возвращение солнца / The return of the Sun
Наступил первый день весны, но зима пока не сдается, и вся округа покрыта снегом. С возвращением солнца начинается сезон размножения.
02. Весенние испытания
Наступила весна - самое яркое время года в Уэльсе. Для дикой фауны это время должно быть самым лучшим, но надо торопиться размножаться, а хищники выходят на охоту.

Скриншоты

Релиз от: kyba

RelizMAN

Post 05-Apr-2020 13:20

[Quote]

Информация о фильме
Название: BBC. Снежные медведи
Оригинальное название: Snow Bears
Год выхода: 2017
Жанр: Документальный, природа, флора, фауна
Режиссер: Филип Далтон
О фильме:
Для белых медведей жизнь – одно нескончаемое приключение. Каждый год по всей Арктике в постоянном поиске пищи они совершают невероятные путешествия. Чтобы выжить, медвежатам вместе с матерью придётся пройти более шестисот километров, чтобы добраться до пакового льда Северного Полюса. Это самое важное испытание в их совсем ещё недолгой жизни. Они увидят странных существ. Их ждут коварные льды, полные опасности моря и грозные самцы. Им предстоит совершить множество удивительных открытий. Прежде чем этот ледяной мир станет им настоящим домом. Это увлекательная история невероятных приключений семьи снежных медведей.

Страна: Великобритания
Студия: John Downer Productions fo BBC, RBS and THIRTEEN Productions LLC
Продолжительность: 00:52:00
Перевод: Профессиональный (одноголосый закадровый)
Файл
Кодек: AVC/H.264
Качество: HDTV 1080i
Видео: 1920x1080 (16:9), 25 fps, AVC (H.264), [email protected], 7371 kbps, 0.142 bit/pixel
Звук:
Русский 48 kHz, AC3 Dolby Digital, 2/0 (L,R) ch, ~192.00 kbps avg 1ТВЧ
Русский 48 kHz, AC3 Dolby Digital, 2/0 (L,R) ch, ~192.00 kbps avg СВ-Дубль
Субтитры: Русские, отключаемые
Семпл

MediaInfo

Complete name : M:ТоррентыДокументальныеСнежные медведи_1080i.mkv
Format : Matroska
Format version : Version 4
File size : 2.87 GiB
Duration : 52 min 0 s
Overall bit rate : 7 912 kb/s
Encoded date : UTC 2020-04-04 18:35:22
Writing application : mkvmerge v6.6.0 ('The Edge Of The In Between') built on Dec 1 2013 17:55:00
Writing library : libebml v1.3.0 + libmatroska v1.4.1
Video
ID : 1
Format : AVC
Format/Info : Advanced Video Codec
Format profile : [email protected]
Format settings : CABAC / 3 Ref Frames
Format settings, CABAC : Yes
Format settings, Reference : 3 frames
Codec ID : V_MPEG4/ISO/AVC
Duration : 52 min 0 s
Bit rate : 7 371 kb/s
Width : 1 920 pixels
Height : 1 080 pixels
Display aspect ratio : 16:9
Frame rate mode : Constant
Frame rate : 25.000 FPS
Color space : YUV
Chroma subsampling : 4:2:0
Bit depth : 8 bits
Scan type : Interlaced
Scan type, store method : Separated fields
Scan order : Top Field First
Bits/(Pixel*Frame) : 0.142
Stream size : 2.68 GiB (93%)
Default : Yes
Forced : No
Color range : Limited
Color primaries : BT.709
Transfer characteristics : BT.709
Matrix coefficients : BT.709
Audio #1
ID : 2
Format : AC-3
Format/Info : Audio Coding 3
Commercial name : Dolby Digital
Codec ID : A_AC3
Duration : 52 min 0 s
Bit rate mode : Constant
Bit rate : 192 kb/s
Channel(s) : 2 channels
Channel layout : L R
Sampling rate : 48.0 kHz
Frame rate : 31.250 FPS (1536 SPF)
Bit depth : 16 bits
Compression mode : Lossy
Stream size : 71.4 MiB (2%)
Title : 1 ТВЧ
Language : Russian
Service kind : Complete Main
Default : No
Forced : No
Audio #2
ID : 3
Format : AC-3
Format/Info : Audio Coding 3
Commercial name : Dolby Digital
Codec ID : A_AC3
Duration : 52 min 0 s
Bit rate mode : Constant
Bit rate : 192 kb/s
Channel(s) : 2 channels
Channel layout : L R
Sampling rate : 48.0 kHz
Frame rate : 31.250 FPS (1536 SPF)
Bit depth : 16 bits
Compression mode : Lossy
Stream size : 71.4 MiB (2%)
Title : СВ-Дубль
Language : Russian
Service kind : Complete Main
Default : No
Forced : No
Text
ID : 4
Format : UTF-8
Codec ID : S_TEXT/UTF8
Codec ID/Info : UTF-8 Plain Text
Title : СВ-Дубль
Language : Russian
Default : No
Forced : No

Скриншоты

Релиз от: kyba

Vi$itReal

Post 04-Apr-2020 14:35

[Quote]

Информация о фильме
Название: Альборан - забытый остров
Оригинальное название: Alboran - the forgotten island
Год выхода: 2010
Жанр: Документальный, путешествия, природа, флора, фауна
Режиссер: Кармен Родригес
В ролях: -
О фильме:
В западной части Средиземного моря, между Испанией и Марокко, затерялся крошечный вулканический островок Альборан. В разное время он привлекал внимание конкистадоров, пилигримов. Здесь, прячась от штормов, находили надёжное убежище пираты. По этому острову названо море, соединяющее Гибралтарский пролив и южный берег Испании. В мире не так много мест, где возможно увидеть такое разнообразие видов китов и дельфинов... Благодаря уникальному составу морской воды и особым климатическим условиям сформировалась удивительная экосистема: от исчезающих кораллов до множества рыб, ракообразных и моллюсков. Альборан богат не только подводными, но и наземными ресурсами. Только здесь можно полюбоваться испанской ромашкой, альборанским крестовиком из семейства астровых и другими редкими видами растений, которые ранее считались исчезнувшими. Альборан – настоящий рай для чаек Оудена. Из года в год они возвращаются на остров для продолжения потомства... Невероятно богатый подводный мир, уникальные растения и животные, населяющие Альборан, делают этот остров поистине островом сокровищ.
Страна: Испания, Великобритания
Студия: Andalucia bitis, sky vision
Продолжительность: 00:52:09
Перевод: Профессиональный (одноголосый закадровый) Видеопродакшн
Файл
Кодек: AVC/H.264
Качество: HDTVRip 720p | P1
Видео: 1280x720 (16:9), 25 fps, AVC (Н.264), [email protected],1, 4000 kbps avg, 0.174 bit/pixel
Звук: Русский 48 kHz, AC3 Dolby Digital, 2/0 (L,R) ch, ~192.00 kbps avg
Семпл

MediaInfo

Complete name : F:НаладкиНовая папкаАльборан_720p.mkv
Format : Matroska
Format version : Version 4
File size : 1.53 GiB
Duration : 52 min 9 s
Overall bit rate : 4 193 kb/s
Encoded date : UTC 2020-04-02 18:31:39
Writing application : mkvmerge v6.6.0 ('The Edge Of The In Between') built on Dec 1 2013 17:55:00
Writing library : libebml v1.3.0 + libmatroska v1.4.1
Video
ID : 1
Format : AVC
Format/Info : Advanced Video Codec
Format profile : [email protected]
Format settings : CABAC / 8 Ref Frames
Format settings, CABAC : Yes
Format settings, Reference : 8 frames
Codec ID : V_MPEG4/ISO/AVC
Duration : 52 min 9 s
Bit rate : 4 000 kb/s
Width : 1 280 pixels
Height : 720 pixels
Display aspect ratio : 16:9
Frame rate mode : Constant
Frame rate : 25.000 FPS
Color space : YUV
Chroma subsampling : 4:2:0
Bit depth : 8 bits
Scan type : Progressive
Bits/(Pixel*Frame) : 0.174
Stream size : 1.43 GiB (93%)
Writing library : x264 core 159 r2991 1771b55
Encoding settings : cabac=1 / ref=8 / deblock=1:-3:-3 / analyse=0x3:0x133 / me=umh / subme=9 / psy=1 / psy_rd=1.00:0.00 / mixed_ref=1 / me_range=32 / chroma_me=1 / trellis=2 / 8x8dct=1 / cqm=0 / deadzone=21,11 / fast_pskip=1 / chroma_qp_offset=-2 / threads=12 / lookahead_threads=2 / sliced_threads=0 / nr=0 / decimate=0 / interlaced=0 / bluray_compat=0 / constrained_intra=0 / bframes=9 / b_pyramid=2 / b_adapt=2 / b_bias=0 / direct=3 / weightb=1 / open_gop=0 / weightp=2 / keyint=250 / keyint_min=25 / scenecut=40 / intra_refresh=0 / rc_lookahead=50 / rc=2pass / mbtree=1 / bitrate=4000 / ratetol=1.0 / qcomp=0.60 / qpmin=0 / qpmax=69 / qpstep=4 / cplxblur=20.0 / qblur=0.5 / ip_ratio=1.40 / aq=1:1.00
Language : English
Default : Yes
Forced : No
Audio
ID : 2
Format : AC-3
Format/Info : Audio Coding 3
Commercial name : Dolby Digital
Codec ID : A_AC3
Duration : 52 min 9 s
Bit rate mode : Constant
Bit rate : 192 kb/s
Channel(s) : 2 channels
Channel layout : L R
Sampling rate : 48.0 kHz
Frame rate : 31.250 FPS (1536 SPF)
Bit depth : 16 bits
Compression mode : Lossy
Stream size : 71.6 MiB (5%)
Language : Russian
Service kind : Complete Main
Default : Yes
Forced : No

Скриншоты

Релиз от: kyba

RelizMAN

Post 02-Apr-2020 14:50

[Quote]

Информация о фильме
Название: Великая американская оттепель
Оригинальное название: Great Yellowstone Thaw
Год выхода: 2017
Жанр: Документальный, природа, флора, фауна
Режиссер: Люси Боуден
О фильме:
Йеллоустоун уникален. Настолько не тронутую природу невозможно найти где-то ещё. Однако, несмотря на красоту и изобилие флоры и фауны, он отличается самой суровой на Земле весной. Ландшафт здесь меняется всего за три месяца, и снежная зима превращается в жаркое и сухое лето. Мы расскажем, как местные обитатели справляются с такими резкими переменами.

Страна: Великобритания
Студия: BBC, PBS
Продолжительность: 3 x ~ 00:59:06
Перевод: Профессиональный (одноголосый закадровый)
Файл
Кодек: AVC/H.264
Качество: HDTV 1080i
Видео: 1920x1080 (16:9), 25 fps, AVC (H.264), [email protected], 6626 kbps, 0.128 bit/pixel
Звук:
Аудио#1: Русский 48 kHz, AC3 Dolby Digital, 2/0 (L,R) ch, ~160.00 kbps avg
Аудио#2: Английский 48 kHz, AC3 Dolby Digital, 2/0 (L,R) ch, ~160.00 kbps avg
Семпл

VediaInfo

Complete name : F:НаладкиВеликая американская оттепель�1. Суровая зима.ts
Format : MPEG-TS
File size : 3.02 GiB
Duration : 59 min 6 s
Overall bit rate mode : Variable
Overall bit rate : 7 310 kb/s
Video
ID : 305 (0x131)
Menu ID : 17105 (0x42D1)
Format : AVC
Format/Info : Advanced Video Codec
Format profile : [email protected]
Format settings : CABAC / 4 Ref Frames
Format settings, CABAC : Yes
Format settings, Reference : 4 frames
Codec ID : 27
Duration : 59 min 6 s
Bit rate : 6 626 kb/s
Width : 1 920 pixels
Height : 1 080 pixels
Display aspect ratio : 16:9
Frame rate : 25.000 FPS
Standard : Component
Color space : YUV
Chroma subsampling : 4:2:0
Bit depth : 8 bits
Scan type : Interlaced
Scan type, store method : Separated fields
Scan order : Top Field First
Bits/(Pixel*Frame) : 0.128
Stream size : 2.74 GiB (91%)
Color range : Limited
Color primaries : BT.709
Transfer characteristics : BT.709
Matrix coefficients : BT.709
Audio #1
ID : 405 (0x195)
Menu ID : 17105 (0x42D1)
Format : MPEG Audio
Format version : Version 1
Format profile : Layer 2
Codec ID : 3
Duration : 59 min 6 s
Bit rate mode : Constant
Bit rate : 160 kb/s
Channel(s) : 2 channels
Sampling rate : 48.0 kHz
Frame rate : 41.667 FPS (1152 SPF)
Compression mode : Lossy
Delay relative to video : -80 ms
Stream size : 67.6 MiB (2%)
Language : Russian
Audio #2
ID : 425 (0x1A9)
Menu ID : 17105 (0x42D1)
Format : MPEG Audio
Format version : Version 1
Format profile : Layer 2
Codec ID : 3
Duration : 59 min 6 s
Bit rate mode : Constant
Bit rate : 160 kb/s
Channel(s) : 2 channels
Sampling rate : 48.0 kHz
Frame rate : 41.667 FPS (1152 SPF)
Compression mode : Lossy
Delay relative to video : -80 ms
Stream size : 67.6 MiB (2%)
Language : English

Содержание

01. The Wildest Winter / Суровая зима
Мы разберемся в научном объяснении йеллоустоунской зимы, поймем важность структуры слежавшегося снега и выясним, как геологические особенности влияют на зубы травоядных животных.
02. The Toughest Spring / Жесткая весна
Зима сменяется весной, температура растет, и Йеллоустоун пробуждается. Но весна - это опасное время; волки голоднее обычного, а реки выходят из берегов из-за таяния снега.
03. The Blazing Summer / Палящее лето
Настало лето и бобрам Йеллоустона предстоит новое испытание. Переживет ли молодняк высыхание реки? Пищи становится меньше и волки находят неожиданный способ кормить щенков.
Релиз от: kyba

Vi$itReal

Post 02-Apr-2020 13:05

[Quote]

Информация о фильме
Название: Космос: возможные миры
Оригинальное название: Cosmos: Possible Worlds
Год выхода: 2020
Жанр: документальный, научно-познавательный
Режиссер: Энн Друян, Брэннон Брага
В ролях: Нил Тайсон, Сет Макфарлейн, Патрик Стюарт, Вигго Мортенсен, Джадд Хёрш, Саша Саган
О фильме: Время и пространства Вселенной невозможно измерить, а количество миров, которые предстоит изучить поистине велико. И тем не менее новый сезон сериала Космос предпринимает завораживающее путешествие к новым мирам – потерянным, и тем, что ещё предстоит открыть. Вы познакомитесь с исследователями, чьей смелости позавидует любой герой. Мы унесём вас далеко в будущее, за завесу реальности.

Страна: США
Студия: Cosmos Studios, Fuzzy Door Productions, National Geographic Channel
Продолжительность: ~00:44:00 серия
Перевод: Любительский (одноголосый, закадровый), Профессиональный (одноголосый, закадровый)
Файл
Качество: WEBRip 720p
Формат: Matroska
Видео: 1280x720 at 24.000 fps, x264, ~3200 kbps avg
Аудио#1: Russian: 48 kHz, AC3, 3/2 (L,C,R,l,r) + LFE ch, ~448 kbps avg |Одноголосый закадровый, Pazl Voice|
Аудио#2: Russian: 48 kHz, AC3, 2/0 (L,R) ch, ~192 kbps avg |Одноголосый закадровый, Велес| |E01-03|
Аудио#3: English: 48 kHz, Е-AC3, 3/2 (L,C,R,l,r) + LFE ch, ~640 kbps avg
Субтитры: English
***Примечание: Без рекламы
***Релиз: R

Список серий

01. Ladder to the Stars / Лестница к звездам
02. The Fleeting Grace of the Habitable Zone / Недолгое счастье в обитаемой зоне
03. Lost City of Life / Затерянный город
04. Vavilov / Вавилов
05. The Cosmic Connectome / Космический коннектом
06. The Man of a Trillion Worlds / Человек триллионов миров

Скриншоты

Vi$itReal

Post 02-Apr-2020 10:35

[Quote]

Название: Пандемия: Коронавирус
Оригинальное название: Pandemic: Covid-19
Год выпуска: 2020
Жанр: Документальный
Выпущено: США
В ролях: Эрик Томпсон
О фильме: Пандемия: Коронавирус — часовой спецвыпуск от Discovery, в котором подробно расскажут о ​​пандемии COVID-19. Эксперты прольют свет на появление и пути передачи вируса, который изначально ставил в тупик врачей и ученых, столкнувшихся с первыми зараженными. Особое внимание будет также уделено тому, как в течение нескольких недель COVID-19 распространился по всему Китаю и за его пределами, и драматической истории эпидемии в США, начавшейся с Сиэтла. Эксперты объяснят, почему коронавирус уникален, почему мир был так не подготовлен к нему и какие меры нужно было предпринять, чтобы максимально сдержать его распространение.

Техданные
Качество: WEBRip (720p)
Видео: MPEG-4 AVC, ~ 2 764 kb/s, 1280x720, 25.000 FPS
Аудио: AC3, 2 ch, 384 Кбит/с
Продолжительность: 00:43:54
Перевод: Любительский двухголосый закадровый (LakeFilms)
Присутствует реклама!

Скриншоты

MI

General
Unique ID : 218079165453276163352020604654402826928 (0xA41084FDE8B60C4AB703CF7F37C672B0)
Complete name : E:Pandemic.COVID.19.WEBRip.720p.LakeFilms.mkv
Format : Matroska
Format version : Version 4 / Version 2
File size : 1 009 MiB
Duration : 43 min 54 s
Overall bit rate mode : Constant
Overall bit rate : 3 212 kb/s
Encoded date : UTC 2020-04-01 21:55:17
Writing application : Pegasys Standard Library
Writing library : Pegasys Standard Library
Video
ID : 2
Format : AVC
Format/Info : Advanced Video Codec
Format profile : [email protected]
Format settings : CABAC / 5 Ref Frames
Format settings, CABAC : Yes
Format settings, RefFrames : 5 frames
Codec ID : V_MPEG4/ISO/AVC
Duration : 43 min 54 s
Bit rate mode : Constant
Bit rate : 2 764 kb/s
Nominal bit rate : 3 700 kb/s / 3 700 kb/s
Width : 1 280 pixels
Height : 720 pixels
Display aspect ratio : 16:9
Frame rate mode : Constant
Frame rate : 25.000 FPS
Standard : Component
Color space : YUV
Chroma subsampling : 4:2:0
Bit depth : 8 bits
Scan type : Progressive
Bits/(Pixel*Frame) : 0.120
Stream size : 868 MiB (86%)
Writing library : x264 core 136
Encoding settings : cabac=1 / ref=5 / deblock=1:0:0 / analyse=0x3:0x113 / me=hex / subme=7 / psy=1 / psy_rd=1.00:0.00 / mixed_ref=1 / me_range=16 / chroma_me=1 / trellis=1 / 8x8dct=1 / cqm=2 / deadzone=21,11 / fast_pskip=1 / chroma_qp_offset=-2 / threads=24 / lookahead_threads=4 / sliced_threads=0 / slices=1 / nr=0 / decimate=1 / interlaced=0 / bluray_compat=0 / constrained_intra=0 / bframes=3 / b_pyramid=0 / b_adapt=1 / b_bias=0 / direct=1 / weightb=1 / open_gop=0 / weightp=2 / keyint=250 / keyint_min=25 / scenecut=40 / intra_refresh=0 / rc_lookahead=40 / rc=cbr / mbtree=1 / bitrate=3700 / ratetol=1.0 / qcomp=0.60 / qpmin=3 / qpmax=69 / qpstep=4 / vbv_maxrate=3700 / vbv_bufsize=3700 / nal_hrd=cbr / ip_ratio=1.40 / aq=1:1.00
Default : Yes
Forced : No
Color range : Limited
Color primaries : BT.709
Transfer characteristics : BT.709
Matrix coefficients : BT.709
Audio
ID : 1
Format : AC-3
Format/Info : Audio Coding 3
Codec ID : A_AC3
Duration : 43 min 54 s
Bit rate mode : Constant
Bit rate : 384 kb/s
Channel(s) : 2 channels
Channel positions : Front: L R
Sampling rate : 48.0 kHz
Frame rate : 31.250 FPS (1536 SPF)
Bit depth : 16 bits
Compression mode : Lossy
Stream size : 121 MiB (12%)
Service kind : Complete Main
Default : Yes
Forced : No

RelizMAN

Post 02-Apr-2020 02:20

[Quote]

Название: Пятёрка лучших
Оригинальное название: World's TOP 5
Год выпуска: 2012
Жанр: Документальный, научно-познавательный, техника
Выпущено: США, Discovery Channel
Режиссер: Элйес Габель
О фильме: "Пятерка лучших" - это новый документальный цикл на канале Дискавери, в котором представлены самые мощные, самые быстрые, самые совершенные автомобили, самолеты и поезда. В каждом новом выпуске встретятся пять представителей своего класса, чтобы начать беспрецедентное состязание. В этом соревновании участвуют не только транспортные средства, но и крупнейшие заводы и высочайшие небоскребы так же выступят в отдельном зачете. Экспертное жюри сравнит пять их основных характеристик и определит лучшего из лучших! Пять дисциплин по пять участников в каждой оцениваются по пяти критериям – и пять победителей в итоге!
Выпуски:
1. Пятёрка лучших самолетов мира.
2. Пятёрка лучших поездов мира.
3. Пятёрка лучших экскаваторов мира.
4. Лучшие пять кораблей мира.
5. Пятёрка лучших автомобилей мира.
6. Пять самых больших заводов мира.
Качество: HDTV (1080i)
Видео: MPEG-4 AVC, ~ 6816 Кбит/с, 1920x1080
Аудио: Русский, английский (АС3, 6 ch, 384 Кбит/с)
Продолжительность: 6 х ~ 00:45:00
Перевод: Одноголосый закадровый

Скриншоты

Vi$itReal

Post 30-Mar-2020 18:20

[Quote]

Название: Охота за драгоценными камнями
Оригинальное название: Gem Hunt
Год выпуска: 2012
Жанр: Документальный, природа, география, путешествия, приключения, исследование
Выпущено: Новая Зеландия , Travel channel
О фильме: Добыча драгоценных камней — рискованный бизнес, но без риска не бывает успеха! Рубиновые шахты Вьетнама и оживлённые уличные рынки Мадагаскара — мы побываем в самых экзотических местах, где можно купить самоцветы. Торговец драгоценными камнями, эксперт по ювелирным украшениям и геолог ездят по разным странам и разыскивают самые крупные, яркие и дорогие камни на свете. Но зачастую их подстерегают опасности: необходимо досконально знать правила въезда и выезда из страны, уметь находить и оценивать местных игроков, устанавливать подлинность товара, договариваться о покупке по лучшей цене и, конечно, безупречно огранять камни. При этом «охотники» сильно рискуют: в случае неправильной огранки покупка полностью потеряет цену.

Официальный сайт
Качество: HDTVRip 720p
Видео: MPEG-4 AVC, ~ 4000 Кбит/с, 1280x720
Аудио: MP2, 2 ch, 192 Кбит/с
Продолжительность: 2 x ~ 00:42:00
Перевод: Профессиональный (двухголосый, закадровый)

[color=blue]Скриншоты[/color]


[color=blue]Название серий[/color]

01. Мадагаскарский аквамарин.
02. Изумруды в Колумбии.

[color=blue]Внимание! Раздача ведётся путём добавления новых серий![/color]

Внимание! Раздача ведётся путём добавления новых серий; при каждом добавлении создfётся новый торрент. Чтобы начать докачку новой серии, пользователям необходимо сделать следующее: (1) остановить скачивание, (2) удалить старый торрент у себя из клиента (старые серии удалять не надо), (3) скачать новый торрент и запустить его у себя в клиенте вместо старого, при этом указать клиенту путь в старую папку куда и должно происходить скачивание новых серий.
Ваш клиент при этом должен произвести хеширование (проверку) старой папки (если не производит сам - помогите ему сделать это), и будет докачивать только те серии которых у вас ещё нет. Старые серии при этом не удаляются, а продолжают раздаваться!
Eсли вы уже удалили старые серии, то предотвратить повторную закачку старых серий можно, отжав галочку в соответсвующих местах при запуске нового торрента.
Благодарю за постер Abakan2000
Релиз от:

RelizMAN

Post 29-Mar-2020 18:05

[Quote]

Информация о фильме
Название: Космос: возможные миры
Оригинальное название: Cosmos: Possible Worlds
Год выхода: 2020
Жанр: документальный, научно-познавательный
Режиссер: Энн Друян, Брэннон Брага
В ролях: Нил Тайсон, Сет Макфарлейн, Патрик Стюарт, Вигго Мортенсен, Джадд Хёрш, Саша Саган
О фильме: Время и пространства Вселенной невозможно измерить, а количество миров, которые предстоит изучить поистине велико. И тем не менее новый сезон сериала Космос предпринимает завораживающее путешествие к новым мирам – потерянным, и тем, что ещё предстоит открыть. Вы познакомитесь с исследователями, чьей смелости позавидует любой герой. Мы унесём вас далеко в будущее, за завесу реальности.

Страна: США
Студия: Cosmos Studios, Fuzzy Door Productions, National Geographic Channel
Продолжительность: ~00:44:00 серия
Перевод: Профессиональный (одноголосый, закадровый) Велес
Файл
Качество: WEBRip 1080p
Формат: Matroska
Видео: 1920x1080 at 24.000 fps, x264, ~9400 kbps avg
Аудио#1: Russian: 48 kHz, AC3, 2/0 (L,R) ch, ~192 kbps avg |Одноголосый закадровый, Велес|
Аудио#2: English: 48 kHz, E-AC3, 3/2 (L,C,R,l,r) + LFE ch, ~640 kbps avg
Субтитры: English
***Примечание: Без рекламы
***Релиз: R

Список серий

01. Ladder to the Stars
02. The Fleeting Grace of the Habitable Zone

Скриншоты

RelizMAN

Post 29-Mar-2020 17:20

[Quote]

Информация о фильме
Название: 5000 лет истории Нила
Оригинальное название: The Nile: 5000 Years Of History with Bettany Hughes
Год выхода: 2018
Жанр: Документальный, история
Режиссер: Катерина Таррони
В ролях: Беттани Хьюз
О фильме:
Беттани Хьюз отправляется в эпическое путешествие по истории и достопримечательностям Древнего Египта. Путешествуя на своей собственной традиционной лодке Дахабия, Беттани путешествует почти на 1000 миль от Каира до Асуанской плотины по могучей реке Нил, останавливаясь в самых знаковых и ослепительных местах на этом пути.

Страна: Великобритания
Студия: 360 Production and Sandstone Global Production for Channel 5
Продолжительность: 4 х ~00:44:36
Перевод: Профессиональный (одноголосый закадровый) SDI Media
Файл
Кодек: AVC/H.264
Качество: HDTV 1080i
Видео: 1920x1080 (16:9), 25 fps, AVC (H.264), [email protected], 6946 kbps, 0.134 bit/pixel
Звук:
Аудио#1: Русский 48 kHz, MPEG Layer 2, 2 ch, ~160.00 kbps avg
Аудио#2: Английский 48 kHz, MPEG Layer 2, 2 ch, ~160.00 kbps avg
Семпл

MediaInfo

Complete name : F:НаладкиНил_5000 лет истории с Беттани Хьюз�1. С1_Е1.ts
Format : MPEG-TS
File size : 2.38 GiB
Duration : 44 min 36 s
Overall bit rate mode : Variable
Overall bit rate : 7 647 kb/s
Video
ID : 305 (0x131)
Menu ID : 17105 (0x42D1)
Format : AVC
Format/Info : Advanced Video Codec
Format profile : [email protected]
Format settings : CABAC / 4 Ref Frames
Format settings, CABAC : Yes
Format settings, Reference : 4 frames
Codec ID : 27
Duration : 44 min 36 s
Bit rate : 6 946 kb/s
Width : 1 920 pixels
Height : 1 080 pixels
Display aspect ratio : 16:9
Frame rate : 25.000 FPS
Standard : Component
Color space : YUV
Chroma subsampling : 4:2:0
Bit depth : 8 bits
Scan type : Interlaced
Scan type, store method : Separated fields
Scan order : Top Field First
Bits/(Pixel*Frame) : 0.134
Stream size : 2.16 GiB (91%)
Color range : Limited
Color primaries : BT.709
Transfer characteristics : BT.709
Matrix coefficients : BT.709
Audio #1
ID : 405 (0x195)
Menu ID : 17105 (0x42D1)
Format : MPEG Audio
Format version : Version 1
Format profile : Layer 2
Codec ID : 3
Duration : 44 min 36 s
Bit rate mode : Constant
Bit rate : 160 kb/s
Channel(s) : 2 channels
Sampling rate : 48.0 kHz
Frame rate : 41.667 FPS (1152 SPF)
Compression mode : Lossy
Stream size : 51.1 MiB (2%)
Language : Russian
Audio #2
ID : 425 (0x1A9)
Menu ID : 17105 (0x42D1)
Format : MPEG Audio
Format version : Version 1
Format profile : Layer 2
Codec ID : 3
Duration : 44 min 36 s
Bit rate mode : Constant
Bit rate : 160 kb/s
Channel(s) : 2 channels
Sampling rate : 48.0 kHz
Frame rate : 41.667 FPS (1152 SPF)
Compression mode : Lossy
Stream size : 51.1 MiB (2%)
Language : English

Содержание

Серия 1
Беттани осматривает древние мумии в Каирском музее, узнает о новых открытиях в Великой пирамиде и исследует туннели, чтобы увидеть самые ранние из известных иероглифов.
Серия 2
Беттани посещает обширную пустынную катакомбу мумифицированных животных, исследует цветок голубого лотоса и храм Дендеры, где Клеопатра соблазнила Юлия Цезаря.
Серия 3
В Луксоре Беттани исследует Долину Царей и Деревню Рабочих, затем направляется в гигантский храм Карнак и пересекает реку на знаменитом пароходе.
Серия 4
В южной части Нила Беттани присоединяется к археологам в храме Бога Крокодила и наблюдает, как лучи восходящего солнца пронзают храм Рамсеса Великого.
Релиз от: kyba

RelizMAN

Post 28-Mar-2020 23:05

[Quote]

Название: Звездное выживание с Беаром Гриллсом
Оригинальное название: Running Wild with Bear Grylls
Год выпуска: 2019
Жанр: Документальный, природа, путешествия, экстрим
Выпущено: США, Великобритания, Electus, ES2 Productions
Режиссер: Беар Гриллс, Дилберт Шупман
В ролях: Беар Гриллс
О фильме: Специалист по выживанию Беар Гриллс возвращается в дикую природу в новом сезоне своего приключенческого сериала вместе с популярными голливудскими знаменитостями, от супергероев Марвел, до отмеченных различными премиями звезд шоу-бизнеса. Раз в неделю каждый новый гость Беара отправляется вместе с ним в путешествие по самым экстремальным природным ландшафтам в мире. Вместе они должны полагаться на способы выживания в условиях дикой природы, преодолевая самые сложные испытания на пределе своих психических и физических возможностей.
Качество: HDTV (1080p)
Видео: MPEG-4 AVC, ~ 4200 Кбит/с, 1920x1080
Аудио: АС3, 2 ch, 192 Кбит/с
Продолжительность: 10 x ~ 00:46:00
Перевод: Профессиональный двухголосый

Скриншоты

RelizMAN

Post 28-Mar-2020 12:20

[Quote]

Информация о фильме
Название: Тропические островки Земли
Оригинальное название: Earth's Tropical Islands
Год выхода: 2020
Жанр: Документальный, природа, флора, фауна
Режиссер: Сара Дуглас, Уилл Риджон, Эви Райт
О фильме:
Много ли вы знаете о тропиках? Возможно, во время обучения географии в школе вы сталкивались с описанием этой зоны в континентальных землях. Правда, островные тропики - это отдельный рассказ. Авторы сценария прекрасно демонстрируют нам этот уникальный и невероятный мир растений и животных, которые создают мини-экосистемы на отдельных клочках земли. Сериал "Тропические островки Земли" предлагает нам посетить самые интересные и необычные места, о которых многие из вас даже не слышали. Удивительные флора и фауна ожидают каждого зрителя. Также авторы не забыли рассказать и о самых крупных тропических объектах в нашем мире. В частности, нам предстоит посетить Мадагаскар, с которого будут совершены и многие другие экспедиции на другие острова, располагающиеся близ одного из крупнейших островов мира, но отличающихся от оного по различным критериям и особенностям....

Страна: Великобритания, США
Студия: BBC Studios, PBS
Продолжительность: 3 x 00:59:03
Перевод: Профессиональный (одноголосый закадровый) NewStudio
Файл
Кодек: AVC/H.264
Качество: WEB-DL 1080p
Видео: 1920x1080 (16:9), AVC (Н.264), [email protected], 9392 Kb/s, 25fps, 0.181 bit/pixel
Звук:
Русский 48 kHz, AC3 Dolby Digital, 2/0 (L,R) ch, ~224.00 kbps avg
Английский 48 kHz, E-AC3 Dolby Digital, 2/0 (L,R) ch, ~224.00 kbps avg
Семпл

MediaInfo

Complete name : D:ТоррентыФильмыДокументальныеТропические острова Земли1. Earths.Tropical.Islands.S01E01.1080p.AMZN.WEB-DL..mkv
Format : Matroska
Format version : Version 4
File size : 4.06 GiB
Duration : 59 min 3 s
Overall bit rate mode : Constant
Overall bit rate : 9 842 kb/s
Encoded date : UTC 2020-03-23 19:12:33
Writing application : mkvmerge v35.0.0 ('All The Love In The World') 32-bit
Writing library : libebml v1.3.9 + libmatroska v1.5.2
Video
ID : 1
Format : AVC
Format/Info : Advanced Video Codec
Format profile : [email protected]
Format settings : CABAC / 4 Ref Frames
Format settings, CABAC : Yes
Format settings, Reference : 4 frames
Codec ID : V_MPEG4/ISO/AVC
Duration : 59 min 3 s
Bit rate mode : Constant
Bit rate : 9 392 kb/s
Nominal bit rate : 10 000 kb/s
Width : 1 920 pixels
Height : 1 080 pixels
Display aspect ratio : 16:9
Frame rate mode : Constant
Frame rate : 25.000 FPS
Color space : YUV
Chroma subsampling : 4:2:0
Bit depth : 8 bits
Scan type : Progressive
Bits/(Pixel*Frame) : 0.181
Stream size : 3.87 GiB (95%)
Default : Yes
Forced : No
Color range : Limited
Color primaries : BT.709
Transfer characteristics : BT.709
Matrix coefficients : BT.709
Audio #1
ID : 2
Format : AC-3
Format/Info : Audio Coding 3
Commercial name : Dolby Digital
Codec ID : A_AC3
Duration : 58 min 57 s
Bit rate mode : Constant
Bit rate : 224 kb/s
Channel(s) : 2 channels
Channel layout : L R
Sampling rate : 48.0 kHz
Frame rate : 31.250 FPS (1536 SPF)
Bit depth : 16 bits
Compression mode : Lossy
Stream size : 94.5 MiB (2%)
Title : NewStudio
Language : Russian
Service kind : Complete Main
Default : Yes
Forced : No
Audio #2
ID : 3
Format : E-AC-3
Format/Info : Enhanced AC-3
Commercial name : Dolby Digital Plus
Codec ID : A_EAC3
Duration : 59 min 3 s
Bit rate mode : Constant
Bit rate : 224 kb/s
Channel(s) : 2 channels
Channel layout : L R
Sampling rate : 48.0 kHz
Frame rate : 31.250 FPS (1536 SPF)
Compression mode : Lossy
Stream size : 94.6 MiB (2%)
Title : English
Language : English
Service kind : Complete Main
Default : No
Forced : No

Содержание

01. Мадагаскар / Madagascar
Рассказ о трех самых экзотических и отдаленных островах планеты, начиная с уникальной и необычной дикой природы Мадагаскара. Мадагаскар -самый старый остров на Земле на котором проходила изолированная эволюция жизни, где появилось больше уникальных растений и животных чем где либо ещё. В фильме показаны такие удивительные животные как кошачьи лемуры, хамелеон Лабора и сифака Ван-дер-Декена. А так же жизнь и быт коренного населения Мадагаскара.
02. Борнео / Borneo
В самом сердце Юго-Восточной Азии лежит тропический остров Борнео. В два раза больше Британских островов, это третий по величине остров на земле и дом, возможно, для величайшего разнообразия жизни.
На его суетливых коралловых рифах, в древних джунглях и высоких горах проживает более 60 000 видов растений и животных, многих из которых нет больше нигде на Земле.
Этот документальный фильм рассказывает о богатстве и разнообразии дикой природы Борнео, от лягушек и летучих мышей до орангутанов и миниатюрных медведей.
03. Гавайи / Hawaii
Путешествие по разным островам Гавайев, истории о том как они были созданы, об их разнообразной дикой природе. Самая отдаленная цепь островов на Земле, до тропических берегов которой довольно трудно добраться. Тем не менее, там обитает множество существ -переселенцев. Среди высоких гор, многочисленных водопадов, песчанных отмелей и кораловых рифов, живут плотоядная гусеница и темноспинный альбатрос, хамелион и зелёная черепаха. В этом документальном фильме вы увидите как люди пытаются восстановить и защитить дикую флору и фауну островов для будущих поколений.
Релиз от: kyba

RelizMAN

Post 26-Mar-2020 23:35

[Quote]

Информация о фильме
Название: Природа Америки: времена года
Оригинальное название: America's Wild Seasons
Год выхода: 2019
Жанр: Документальный, природа, флора, фауна
Режиссер: Джефф Моралес
О фильме:
Соединенные Штаты Америки – это огромное разнообразие климатических явлений. Следуя с севера на юг, или же с запада к восточной части страны можно столкнуться как с лютыми морозами, так и с запредельной жарой.
Страна: США
Студия: MBM TV and Tamarin Productions
Продолжительность: 4 x ~ 00:47:56
Перевод: Профессиональный (одноголосый закадровый)
Файл
Кодек: AVC/H.264
Качество: HDTV 1080i
Видео: 1920x1080 (16:9), 25 fps, AVC (H.264), [email protected], 6774 kbps, 0.131 bit/pixel
Звук:
Русский 48 kHz, MPEG Layer 2, 2 ch, ~160.00 kbps avg SDI Media
Русский 48 kHz, MPEG Layer 2, 2 ch, ~128.00 kbps avg Love Nature
Английский 48 kHz, MPEG Layer 2, 2 ch, ~160.00 kbps avg
Семпл

MediaInfo

Complete name : M:ТоррентыПрирода Америки�1. Весна.mkv
Format : Matroska
Format version : Version 4
File size : 2.47 GiB
Duration : 47 min 56 s
Overall bit rate : 7 369 kb/s
Encoded date : UTC 2020-03-25 18:51:53
Writing application : mkvmerge v6.6.0 ('The Edge Of The In Between') built on Dec 1 2013 17:55:00
Writing library : libebml v1.3.0 + libmatroska v1.4.1
Video
ID : 1
Format : AVC
Format/Info : Advanced Video Codec
Format profile : [email protected]
Format settings : CABAC / 4 Ref Frames
Format settings, CABAC : Yes
Format settings, Reference : 4 frames
Codec ID : V_MPEG4/ISO/AVC
Duration : 47 min 56 s
Bit rate : 6 774 kb/s
Width : 1 920 pixels
Height : 1 080 pixels
Display aspect ratio : 16:9
Frame rate mode : Constant
Frame rate : 25.000 FPS
Standard : Component
Color space : YUV
Chroma subsampling : 4:2:0
Bit depth : 8 bits
Scan type : Interlaced
Scan type, store method : Separated fields
Scan order : Top Field First
Bits/(Pixel*Frame) : 0.131
Stream size : 2.27 GiB (92%)
Default : Yes
Forced : No
Color range : Limited
Color primaries : BT.709
Transfer characteristics : BT.709
Matrix coefficients : BT.709
Audio #1
ID : 2
Format : MPEG Audio
Format version : Version 1
Format profile : Layer 2
Codec ID : A_MPEG/L2
Codec ID/Hint : MP2
Duration : 47 min 56 s
Bit rate mode : Constant
Bit rate : 160 kb/s
Channel(s) : 2 channels
Sampling rate : 48.0 kHz
Compression mode : Lossy
Stream size : 54.9 MiB (2%)
Title : SDI Media
Language : Russian
Default : Yes
Forced : No
Audio #2
ID : 3
Format : MPEG Audio
Format version : Version 1
Format profile : Layer 2
Codec ID : A_MPEG/L2
Codec ID/Hint : MP2
Duration : 47 min 56 s
Bit rate mode : Constant
Bit rate : 128 kb/s
Channel(s) : 2 channels
Sampling rate : 48.0 kHz
Compression mode : Lossy
Stream size : 43.9 MiB (2%)
Title : Love Nature
Language : Russian
Default : No
Forced : No
Audio #3
ID : 4
Format : MPEG Audio
Format version : Version 1
Format profile : Layer 2
Codec ID : A_MPEG/L2
Codec ID/Hint : MP2
Duration : 47 min 56 s
Bit rate mode : Constant
Bit rate : 160 kb/s
Channel(s) : 2 channels
Sampling rate : 48.0 kHz
Compression mode : Lossy
Stream size : 54.9 MiB (2%)
Language : English
Default : No
Forced : No

Содержание

01. Весна / Spring
Пробудившись от зимней спячки, разливаются ручьи, вновь зеленеют пастбища для телят бизонов на равнинах Южной Дакоты, а пустыни Аризоны расцветают, освеженные дождем.
02 Лето / Summer
Лето приносит теплые деньки и стремление к размножению - конкуренция за партнера становится острой. Бизоны бодаются на плато Йеллоустоун, а в Грейт Смоки Маунтинс светлячки зажигают огни любви.
03. Осень / Aotumn
Осень приносит перемены всей Америке. Миллионы водоплавающих птиц летят на теплый юг, а те кто остается - готовят запасы. Деловитые бобры собирают ветки, пока Вайоминг еще не замерз.
04. Зима / Winter
Зима - настоящее испытание. Температура падает и бабочки монархи вместе с горбатыми китами устремляются в теплую Калифорнию и на Гавайи. Тех, кто останется, ожидает суровый мороз и скудость питания.
Релиз от: kyba

Vi$itReal

Post 23-Mar-2020 06:20

[Quote]

Информация о фильме
Название: Рождение океана
Оригинальное название: Naissance d'un Océan
Год выхода: 2015
Жанр: Документальный, познавательный
Режиссер: Жан-Пьер Бейли
О фильме:
Фильм рассказывает о строительстве и начале работы самого крупного в Евразии Океанариума. В Китае удалось создать удивительный "храм" из стекла и бетона водоизмещением 500 млн литров, где обитает более 10 тысяч различных морских созданий.
Страна: Франция
Студия: Beijing Nanyang et MC4
Продолжительность: 2 x ~ 00:50:02
Перевод: Профессиональный (двухголосый закадровый) SDI Media
Файл
Кодек: AVC/H.264
Качество: HDTVRip 720p
Видео: 1280x720 (16:9), 25 fps, AVC (Н.264), [email protected],1, 4000 kbps avg, 0.174 bit/pixel
Звук: Русский 48 kHz, AC3 Dolby Digital, 2/0 (L,R) ch, ~192.00 kbps avg
Семпл

MediaInfo

Complete name : F:НаладкиРождение океана�1. Е 1_720p.mkv
Format : Matroska
Format version : Version 4
File size : 1.47 GiB
Duration : 50 min 2 s
Overall bit rate : 4 194 kb/s
Encoded date : UTC 2020-03-08 16:43:03
Writing application : mkvmerge v6.6.0 ('The Edge Of The In Between') built on Dec 1 2013 17:55:00
Writing library : libebml v1.3.0 + libmatroska v1.4.1
Video
ID : 1
Format : AVC
Format/Info : Advanced Video Codec
Format profile : [email protected]
Format settings : CABAC / 8 Ref Frames
Format settings, CABAC : Yes
Format settings, Reference : 8 frames
Codec ID : V_MPEG4/ISO/AVC
Duration : 50 min 2 s
Bit rate : 4 000 kb/s
Width : 1 280 pixels
Height : 720 pixels
Display aspect ratio : 16:9
Frame rate mode : Constant
Frame rate : 25.000 FPS
Color space : YUV
Chroma subsampling : 4:2:0
Bit depth : 8 bits
Scan type : Progressive
Bits/(Pixel*Frame) : 0.174
Stream size : 1.37 GiB (93%)
Writing library : x264 core 159 r2991 1771b55
Encoding settings : cabac=1 / ref=8 / deblock=1:-3:-3 / analyse=0x3:0x133 / me=umh / subme=9 / psy=1 / psy_rd=1.00:0.00 / mixed_ref=1 / me_range=32 / chroma_me=1 / trellis=2 / 8x8dct=1 / cqm=0 / deadzone=21,11 / fast_pskip=1 / chroma_qp_offset=-2 / threads=12 / lookahead_threads=2 / sliced_threads=0 / nr=0 / decimate=0 / interlaced=0 / bluray_compat=0 / constrained_intra=0 / bframes=9 / b_pyramid=2 / b_adapt=2 / b_bias=0 / direct=3 / weightb=1 / open_gop=0 / weightp=2 / keyint=250 / keyint_min=25 / scenecut=40 / intra_refresh=0 / rc_lookahead=50 / rc=2pass / mbtree=1 / bitrate=4000 / ratetol=1.0 / qcomp=0.60 / qpmin=0 / qpmax=69 / qpstep=4 / cplxblur=20.0 / qblur=0.5 / ip_ratio=1.40 / aq=1:1.00
Language : English
Default : Yes
Forced : No
Audio
ID : 2
Format : AC-3
Format/Info : Audio Coding 3
Commercial name : Dolby Digital
Codec ID : A_AC3
Duration : 50 min 2 s
Bit rate mode : Constant
Bit rate : 192 kb/s
Channel(s) : 2 channels
Channel layout : L R
Sampling rate : 48.0 kHz
Frame rate : 31.250 FPS (1536 SPF)
Bit depth : 16 bits
Compression mode : Lossy
Stream size : 68.7 MiB (5%)
Language : Russian
Service kind : Complete Main
Default : Yes
Forced : No

Скриншоты

Релиз от: kyba

RelizMAN

Post 22-Mar-2020 21:50

[Quote]

Информация о фильме
Название: Арктическая экспедиция: дайвинг на полюсе
Оригинальное название: Deepsea Under The Pole
Год выхода: 2010
Жанр: Документальный, спорт, экстрим, дайвинг
Режиссер: Тьерри Робер
О фильме:
В фильме представлена экспедиция Rolex на Северный полюс, целью которой является исследование загадочной стороны ледяного океана. Путешествие в фантастический мир совершенно чистой воды. Подводный рельеф создает вид замерзших облаков, построенных из огромных кристаллов невероятных цветов ...
Страна: Франция
Студия: Docside Production
Продолжительность: 00:50:59
Перевод: Профессиональный (двухголосый закадровый)
Файл
Кодек: AVC/H.264
Качество: HDTV 1080i
Видео: 1920x1080 (16:9), 25 fps, AVC (H.264), [email protected], 8247 kbps, 0.159 bit/pixel
Звук: Русский 48 kHz, MPEG Layer 2, 2 ch, ~192.00 kbps avg
Семпл

MediaInfo

Complete name : F:Наладки Арктическая экспедиция_ Дайвинг на полюсе.ts
Format : MPEG-TS
File size : 3.16 GiB
Duration : 50 min 59 s
Overall bit rate mode : Variable
Overall bit rate : 8 880 kb/s
Video
ID : 3011 (0xBC3)
Menu ID : 3001 (0xBB9)
Format : AVC
Format/Info : Advanced Video Codec
Format profile : [email protected]
Format settings : CABAC / 3 Ref Frames
Format settings, CABAC : Yes
Format settings, Reference : 3 frames
Codec ID : 27
Duration : 50 min 59 s
Bit rate : 8 247 kb/s
Width : 1 920 pixels
Height : 1 080 pixels
Display aspect ratio : 16:9
Frame rate : 25.000 FPS
Color space : YUV
Chroma subsampling : 4:2:0
Bit depth : 8 bits
Scan type : Interlaced
Scan type, store method : Separated fields
Scan order : Top Field First
Bits/(Pixel*Frame) : 0.159
Stream size : 2.94 GiB (93%)
Color range : Limited
Color primaries : BT.709
Transfer characteristics : BT.709
Matrix coefficients : BT.709
Audio
ID : 3012 (0xBC4)
Menu ID : 3001 (0xBB9)
Format : MPEG Audio
Format version : Version 1
Format profile : Layer 2
Codec ID : 3
Duration : 50 min 59 s
Bit rate mode : Constant
Bit rate : 192 kb/s
Channel(s) : 2 channels
Sampling rate : 48.0 kHz
Frame rate : 41.667 FPS (1152 SPF)
Compression mode : Lossy
Stream size : 70.0 MiB (2%)
Language : Russian
Релиз от: kyba
 

Current time is: 09-Apr 02:42

All times are UTC + 3