Search found 500 matches

Author Message

RelizMAN

Post 04-Apr-2020 21:35

[Quote]

Информация о фильме
Название: Дикие Анды
Оригинальное название: The wild Andes
Год выхода: 2018
Жанр: Документальный, природа, флора, фауна
Режиссер: Кристиан Баумейстер
О фильме:
Анды – самая длинная горная система на Земле, рождённая в огне вулканов. Она протянулась более чем на 7 тысяч километров вдоль всей Южной Америки. Горные пики Анд превышают шесть тысяч метров. Горная система Анд начала формироваться около двадцати пяти миллионов лет назад, образуя массив складчатых гор, идущий вдоль всего западного побережья Южной Америки. Многие вулканы Северных Анд продолжают подниматься. Их толкают вверх могучие тектонические силы. Это относится и ко всем окружающим горам. Поднимаясь, горы создают новые ландшафты, где возникает новая жизнь.
Страна: Германия
Студия: Light & Shadow GmbH
Продолжительность: 3 х ~ 00:50:02
Перевод: Профессиональный (одноголосый закадровый) СВ-Дубль
Файл
Кодек: AVC/H.264
Качество: DVB
Видео: 720x576 (16:9) AVC (H.264) [email protected], ~ 3046 kbps, 25 fps
Звук: Русский 48 kHz, MPEG Layer 2, 2 ch, ~192.00 kbps avg
Субтитры: Русские, отключаемые
Семпл

MediaInfo

Complete name : F:НаладкиSD-фильмыДикие Анды1. Жизнь в облаках.mkv
Format : Matroska
Format version : Version 4
File size : 1.15 GiB
Duration : 50 min 2 s
Overall bit rate : 3 304 kb/s
Encoded date : UTC 2020-03-31 17:39:34
Writing application : mkvmerge v6.6.0 ('The Edge Of The In Between') built on Dec 1 2013 17:55:00
Writing library : libebml v1.3.0 + libmatroska v1.4.1
Video
ID : 1
Format : AVC
Format/Info : Advanced Video Codec
Format profile : [email protected]
Format settings : CABAC / 4 Ref Frames
Format settings, CABAC : Yes
Format settings, Reference : 4 frames
Codec ID : V_MPEG4/ISO/AVC
Bit rate : 3 046 kb/s
Width : 720 pixels
Height : 576 pixels
Display aspect ratio : 16:9
Frame rate mode : Variable
Original frame rate : 25.000 FPS
Standard : Component
Color space : YUV
Chroma subsampling : 4:2:0
Bit depth : 8 bits
Scan type : Interlaced
Scan type, store method : Separated fields
Scan order : Top Field First
Default : Yes
Forced : No
Color range : Limited
Color primaries : BT.601 PAL
Transfer characteristics : BT.470 System B/G
Matrix coefficients : BT.470 System B/G
Audio
ID : 2
Format : MPEG Audio
Format version : Version 1
Format profile : Layer 2
Codec ID : A_MPEG/L2
Codec ID/Hint : MP2
Duration : 50 min 2 s
Bit rate mode : Constant
Bit rate : 192 kb/s
Channel(s) : 2 channels
Sampling rate : 48.0 kHz
Compression mode : Lossy
Stream size : 68.7 MiB (6%)
Language : Russian
Default : Yes
Forced : No
Text
ID : 3
Format : UTF-8
Codec ID : S_TEXT/UTF8
Codec ID/Info : UTF-8 Plain Text
Title : СВ-Дубль
Language : Russian
Default : No
Forced : No

Содержание

01. Жизнь в облаках / Life in the Clouds
Северные Анды – это огромные горы, находящиеся по обе стороны экватора. Там комфортно проживают и медведи и крохотные колибри, танцующие в разреженном воздухе. На крутых склонах ядовитые лягушки возят на спине своё потомство. Редчайшие виды обезьян приспосабливаются к меняющимся условиям… Всё живое здесь подчиняется могучим стихиям, которые продолжают воздействовать на эти потрясающие горы.
02. Экстремальное выживание / Extreme Survival
Это горный массив Центральные Анды. Четыре тысячи метров над уровнем моря. В этом пустынном краю обитают лишь самые неприхотливые животные на планете, окруженные лагунами с солёной водой. Вода здесь – большая ценность. Она дарит жизнь, но иногда отбирает её. Эта земля никого не щадит. Она выжжена солнцем, и здесь мало кислорода. И всё же, несмотря на её суровость, тут есть жизнь. Жизнь на грани выживания.
03. Суровый мир Патагонии / Patagonia Untamed
Это Южная оконечность Анд где самка пумы растит потомство. Андские кондоры парят над бескрайними дождевыми лесами. Где прячутся его особые обитатели. Тут встречаются виды деревьев, пережившие динозавров. На этой южной окраине Патагонии все обитатели должны быть готовы к постоянным потрясениям, вторжениям и неожиданным переменам. Это совершенно дикий мир. Это жизнь на краю Земли.
Релиз от: kyba

RelizMAN

Post 02-Apr-2020 20:20

[Quote]

Название: Пандемия: Коронавирус
Оригинальное название: Pandemic: Covid-19
Год выпуска: 2020
Жанр: Документальный
Выпущено: США
В ролях: Эрик Томпсон
О фильме: Пандемия: Коронавирус — часовой спецвыпуск от Discovery, в котором подробно расскажут о ​​пандемии COVID-19. Эксперты прольют свет на появление и пути передачи вируса, который изначально ставил в тупик врачей и ученых, столкнувшихся с первыми зараженными. Особое внимание будет также уделено тому, как в течение нескольких недель COVID-19 распространился по всему Китаю и за его пределами, и драматической истории эпидемии в США, начавшейся с Сиэтла. Эксперты объяснят, почему коронавирус уникален, почему мир был так не подготовлен к нему и какие меры нужно было предпринять, чтобы максимально сдержать его распространение.

Техданные
Качество: WEBRip
Видео: XviD, ~ 1808 kb/s, 720x400, 25.000 FPS
Аудио: AC3, 2 ch, 320 Кбит/с
Продолжительность: 00:43:54
Перевод: Любительский двухголосый закадровый (LakeFilms)
Присутствует реклама!

Скриншоты

RelizMAN

Post 29-Mar-2020 16:20

[Quote]

Информация о фильме
Название: Война кланов
Оригинальное название: Rise of the Clans
Год выхода: 2018
Жанр: Документальный, история
Режиссер: Крэйг Коллинсон
В ролях: Нил Оливер
О фильме:
Древние кланы Шотландии известны как одни из самых легендарных воинов в истории - жестокие племена, образованные дикими горами и селами страны. Это их захватывающая история героизма и злодейства с участием самых знаковых персонажей Шотландии - от Роберта Брюса до Марии, королевы шотландцев. Узнайте, как объединенные кланы победили величайшую военную мощь Европы, чтобы претендовать на независимость Шотландии, и как они использовали свое влияние, чтобы свергнуть правителей и изменить ход истории. Это настоящая шотландская игра престолов: эпическая борьба за власть, рассказанная с точки зрения враждующих кланов.
Официальный сайт
Страна: Великобритания
Студия: BBC Scotland
Продолжительность: 3 х ~00:49:56
Перевод: Профессиональный (двухголосый закадровый) СВ-Дубль
Файл
Кодек: AVC/H.264
Качество: DVB
Видео: 720x576 (16:9) AVC (H.264) [email protected], ~ 2082 kbps, 25 fps
Звук: Русский 48 kHz, MPEG Layer 2, 2 ch, ~192.00 kbps avg
Субтитры: Русские, отключаемые
Семпл

Содержание

01. Превосходство Брюса / The Bruce Supremacy
В середине лета 1314 года вся Шотландия затаила дыхание. Многочисленная армия англичан перешла границу и двинулась на север, намереваясь дать бой мятежному королю Роберту Брюсу. Брюс уже восемь лет регулярно наносил англичанам неожиданные удары и одерживал победы. Важнейшим условием этого успеха была поддержка таких могучих кланов как Кэмпбеллы и Макдональды. На рассвете все они приготовились к решающей битве с англичанами. Если победит Брюс, его клан обретёт земли и могущество. Но англичан больше в три раза. А если шотландцы проиграют, они потеряют всё.
02. Брат на брата / Brothers at War
Когда-то давно жил в Шотландии могучий вождь клана, который возвысился над остальными и обрёл шотландский трон. Его звали Роберт Стюарт. Чтобы управлять Шотландией и непокорными кланами, Роберт наделил каждого из своих четырёх сыновей частью королевства и королевской властью. Но смерть Роберта изменила ситуацию. Между братьям началась яростная борьба, ведь каждый хотел стать королём. Стюарты, как голодные львы, рыскали по всему королевству, борясь за власть, мечтая о троне, и постепенно уничтожали друг друга. Кто из четверых одержит победу? Кто продолжит королевский род Стюартов?
03. Преданная королева / A Queen Betrayed
Город Лит. Тысяча пятьсот шестьдесят первый год. Марии было всего пять лет, когда её отправили во Францию – подальше от английского короля. Но теперь Мария Стюарт, королева Шотландии, вернулась. Юная королева ничего не знает о жизни в Шотландии. Марию встречает её старший брат – лорд Джеймс Стюарт. Более десяти лет назад, Шотландия была католическим королевством. Вернувшись, Мария узнала, что половина её поданных – протестанты, включая брата. Но "протестантская революция" не победила до конца. Возникла опасность развязывания религиозной войны между кланами. Чью сторону займёт Мария?
Релиз от: kyba

RelizMAN

Post 23-Mar-2020 14:20

[Quote]

Страна: Россия
Производство: Стар-медиа, Студия "Бабич-дизайн"
Жанр: документальный, военный, история
Год выпуска: 2018
Продолжительность: 01:04:03
Перевод: не требуется
Субтитры: нет
Оригинальная аудиодорожка: русский
Режиссер: Анастасия Попова
Голос за кадром: Всеволод Кузнецов
В ролях:
Станислав Каллас, Анна Яшина, Николай Орловский, Егор Новокшонов, Мария Климова...
Описание:
Россия и Польша. История двух стран на протяжении веков была наполнена конфликтами и политическими интригами. Периоды войны сменялись годами перемирия. Из фильма зритель узнает: какие исторические события и фигуры стояли за многовековым противостоянием двух славянских народов. Почему поляки оказались первыми, кто с оружием в руках оккупировал Киевскую Русь? Какую роль в отношениях между славянами сыграла борьба с монгольскими завоевателями? За что поляки в конце XVIII века убивали русских прямо на улицах Варшавы? Как разделы Польши между другими странами привели к её исчезновению? Каким образом поляки в начале XIX века стали приближёнными русского императорского двора и влияли на политику России? Как приход к власти во Франции Наполеона Бонапарта отразился на отношениях России и Польши? Почему поляки напали на Россию вместе с французами? Почему Наполеон разочаровал поляков, а поляки Наполеона? Как Польша возродилась из небытия и какую роль в этом сыграли российские правители?- -Исходник: WEB-DL 1080p
Качество видео: WEB-DLRip
Формат видео: AVI
Видео: 720x400 (16:9), 25,000 кадров/сек, XviD ~ 1446 Кбит/сек, 0.201 bit/pixel
Аудио: 48 kHz, Dolby Digital AC3 2.0, 192 kbps
Раздача от:

MediaInfo

Общее
Полное имя : Polskiy.sled.2018.WEB-DLRip_[New-team]_by_AVP_Studio.avi
Формат : AVI
Формат/Информация : Audio Video Interleave
Размер файла : 1,09 Гбайт
Продолжительность : 1 ч. 34 м.
Общий поток : 1648 Кбит/сек
Программа кодирования : VirtualDubMod 1.5.10.3 | www.virtualdub-fr.org || (build 2550/release)
Библиотека кодирования : VirtualDubMod build 2550/release
Видео
Идентификатор : 0
Формат : MPEG-4 Visual
Профиль формата : Advanced [email protected]
Настройки формата : BVOP1 / Custom Matrix
Параметр BVOP формата : 1
Параметр QPel формата : Нет
Параметр GMC формата : Без точки перехода
Параметр матрицы формата : Выборочная
Идентификатор кодека : XVID
Идентификатор кодека/Подсказка : XviD
Продолжительность : 1 ч. 34 м.
Битрейт : 1446 Кбит/сек
Ширина : 720 пикселей
Высота : 400 пикселей
Соотношение сторон : 16:9
Частота кадров : 25,000 кадров/сек
Цветовое пространство : YUV
Субдискретизация насыщенности : 4:2:0
Битовая глубина : 8 бит
Тип развёртки : Прогрессивная
Метод сжатия : С потерями
Бит/(Пиксели*Кадры) : 0.201
Размер потока : 979 Мбайт (88%)
Библиотека кодирования : XviD 73
Аудио
Идентификатор : 1
Формат : AC-3
Формат/Информация : Audio Coding 3
Коммерческое название : Dolby Digital
Идентификатор кодека : 2000
Продолжительность : 1 ч. 34 м.
Вид битрейта : Постоянный
Битрейт : 192 Кбит/сек
Каналы : 2 канала
ChannelLayout : L R
Частота : 48,0 КГц
Частота кадров : 31,250 кадров/сек (1536 SPF)
Метод сжатия : С потерями
Размер потока : 130 Мбайт (12%)
Выравнивание : Разделение по промежуткам
Продолжительность промежутка : 40 мс. (1,00 видеокадр)
Время предзагрузки промежутка : 500 мс

Скриншоты

RelizMAN

Post 20-Mar-2020 08:05

[Quote]

«Join the regeneration»
Информация о фильме
Название: 2040: Будущее ждёт
Оригинальное название: 2040
Год выхода: 2019
Жанр: Документальный, новости, история
Режиссер: Дэймон Гамо
В ролях: Дэймон Гамо, Ева Лаззеро, Зои Гамо, Линда МакКончи
О фильме:
Вы когда-нибудь задумывались, как могла бы выглядеть жизнь на планете через 20 лет? Представьте, если бы мы использовали лучшие открытия и технологии и решили существующие проблемы? Все зависит только от нас. Загляните в новый мир сейчас.


Страна: Австралия
Студия: GoodThing Productions, Regen Pictures
Продолжительность: 01:31:42
Перевод:
• Профессиональный (многоголосый, закадровый) | iTunes
Файл
Качество: WEB-DLRip
Формат: AVI
Кодек: XviD
Видео: 720x304 (2,35:1), 24 fps, XviD ~ 1886 Kbps avg, 0.359 bit/pixel
Аудио: AC3, 48 kHz, 6 ch, ~384.00 kbps avg | русский | iTunes
Субтитры: Отсутствуют

Скриншоты

Vi$itReal

Post 14-Mar-2020 10:20

[Quote]

Информация о фильме
Название: Скитания капитана "Армады"
Оригинальное название: After The Armada
Год выхода: 2017
Жанр: Документальный, история
Режиссер: Мача Медиа
О фильме:
Капитан испанской "Армады" Франсиско де Куэльяр потерпел кораблекрушение у побережья Слайго в сентябре 1588 года. Он провел семь месяцев в раздираемой войной Ирландии, пытаясь избежать смерти, прежде чем отправиться в Мадрид.
Страна: Ирландия
Студия: Flame Distribution
Продолжительность: 00:50:23
Перевод: Профессиональный (двухголосый закадровый) Видеопродакшн
Файл
Кодек: AVC/H.264
Качество: DVB
Видео: 720x576 (16:9) AVC (H.264) [email protected], ~ 1561 kbps, 25 fps
Звук:
Аудио#1: Русский 48 kHz, AC3 Dolby Digital, 2/0 (L,R) ch, ~160.00 kbps avg
Аудио#2: Английский 48 kHz, AC3 Dolby Digital, 2/0 (L,R) ch, ~160.00 kbps avg
Семпл

MediaInfo

Complete name : D:ТоррентыФильмыДокументальныеСкитания капитана Армады.ts
Format : MPEG-TS
File size : 715 MiB
Duration : 50 min 23 s
Overall bit rate mode : Variable
Overall bit rate : 1 982 kb/s
Video
ID : 214 (0xD6)
Menu ID : 414 (0x19E)
Format : AVC
Format/Info : Advanced Video Codec
Format profile : [email protected]
Format settings : CABAC / 4 Ref Frames
Format settings, CABAC : Yes
Format settings, Reference : 4 frames
Format settings, GOP : M=2, N=16
Codec ID : 27
Duration : 50 min 24 s
Bit rate : 1 561 kb/s
Width : 720 pixels
Height : 576 pixels
Display aspect ratio : 16:9
Frame rate : 25.000 FPS
Standard : Component
Color space : YUV
Chroma subsampling : 4:2:0
Bit depth : 8 bits
Scan type : Interlaced
Scan type, store method : Separated fields
Scan order : Top Field First
Bits/(Pixel*Frame) : 0.151
Stream size : 563 MiB (79%)
Color range : Limited
Color primaries : BT.601 PAL
Transfer characteristics : BT.470 System B/G
Matrix coefficients : BT.470 System B/G
Audio #1
ID : 314 (0x13A)
Menu ID : 414 (0x19E)
Format : MPEG Audio
Format version : Version 1
Format profile : Layer 2
Codec ID : 3
Duration : 50 min 24 s
Bit rate mode : Constant
Bit rate : 160 kb/s
Channel(s) : 2 channels
Sampling rate : 48.0 kHz
Frame rate : 41.667 FPS (1152 SPF)
Compression mode : Lossy
Stream size : 57.7 MiB (8%)
Language : Russian
Audio #2
ID : 414 (0x19E)
Menu ID : 414 (0x19E)
Format : MPEG Audio
Format version : Version 1
Format profile : Layer 2
Codec ID : 3
Duration : 50 min 24 s
Bit rate mode : Constant
Bit rate : 160 kb/s
Channel(s) : 2 channels
Sampling rate : 48.0 kHz
Frame rate : 41.667 FPS (1152 SPF)
Compression mode : Lossy
Stream size : 57.7 MiB (8%)
Language : English
Релиз от: kyba

Vi$itReal

Post 13-Mar-2020 21:35

[Quote]

Информация о фильме
Название: Георг Третий. Гений безумного короля
Оригинальное название: George III: The Genius of the Mad King
Год выхода: 2017
Жанр: Документальный, история
Режиссер: Джон Бридкут
О фильме:
Личные письма и документы короля Англии, дольше всех правившего страной, наконец-то предстанут перед зрителем после того, как они были засекречены на 200 лет. Георга III в основном помнят за его безумие, но эти исторические сокровища помогли по-новому взглянуть на человека, который оставил свой след в важнейших событиях британской истории.

Страна: Великобритания
Студия: Crux Productions
Продолжительность: 00:59:08
Перевод: Профессиональный (двухголосый закадровый) Видеопродакшн
Файл
Кодек: AVC/H.264
Качество: DVB
Видео: 720x576 (16:9) AVC (H.264) [email protected], ~ 1054 kbps, 25 fps
Звук: Русский 48 kHz, MPEG Layer 2, 2 ch, ~160.00 kbps avg
Семпл

MediaInfo

Complete name : F:НаладкиГеорг III.ts
Format : MPEG-TS
File size : 541 MiB
Duration : 59 min 8 s
Overall bit rate mode : Variable
Overall bit rate : 1 279 kb/s
Video
ID : 209 (0xD1)
Menu ID : 109 (0x6D)
Format : AVC
Format/Info : Advanced Video Codec
Format profile : [email protected]
Format settings : CABAC / 4 Ref Frames
Format settings, CABAC : Yes
Format settings, Reference : 4 frames
Format settings, GOP : M=4, N=28
Codec ID : 27
Duration : 59 min 8 s
Bit rate : 1 054 kb/s
Width : 720 pixels
Height : 576 pixels
Display aspect ratio : 16:9
Frame rate : 25.000 FPS
Standard : Component
Color space : YUV
Chroma subsampling : 4:2:0
Bit depth : 8 bits
Scan type : Interlaced
Scan type, store method : Separated fields
Scan order : Top Field First
Bits/(Pixel*Frame) : 0.102
Stream size : 446 MiB (82%)
Color range : Limited
Color primaries : BT.601 PAL
Transfer characteristics : BT.470 System B/G
Matrix coefficients : BT.470 System B/G
Audio
ID : 309 (0x135)
Menu ID : 109 (0x6D)
Format : MPEG Audio
Format version : Version 1
Format profile : Layer 2
Codec ID : 3
Duration : 59 min 8 s
Bit rate mode : Constant
Bit rate : 160 kb/s
Channel(s) : 2 channels
Sampling rate : 48.0 kHz
Frame rate : 41.667 FPS (1152 SPF)
Compression mode : Lossy
Stream size : 67.7 MiB (13%)
Language : Russian

Скриншоты

Релиз от: kyba

RelizMAN

Post 09-Mar-2020 17:20

[Quote]

Информация о фильме
Название: Малыши в дикой природе: первый год на земле
Оригинальное название: Animal Babies: First Year on Earth
Год выхода: 2019
Жанр: Документальный, природа, флора, фауна
Режиссер: Джеймс Хемминг
О фильме:
Для животных во всём мире первый год жизни – самый сложный и опасный. Чтобы выжить, им приходится каждый день бороться с соперниками, природными катаклизмами, хищниками… Фильм рассказывает, как день за днем растут и развиваются представители самых известных видов: детеныши слонов, морских выдр, гиены, полярной лисицы, цейлонской макаки и горной гориллы. Это рассказ о том, как уцелеть в условиях дикой природы. История первого года жизни на земле.

Страна: Великобритания
Студия: BBC Studios
Продолжительность: 3 x ~ 00:48:24
Перевод: Профессиональный (двухголосый закадровый) СВ-Дубль
Файл
Кодек: AVC/H.264
Качество: DVB
Видео: 720x576 (16:9) AVC (H.264) [email protected], ~ 3208 kbps, 25 fps
Звук: Русский 48 kHz, MPEG Layer 2, 2 ch, ~192.00 kbps avg
Субтитры: Русские, отключаемые
Семпл

MediaInfo

Complete name : F:НаладкиSD-фильмыМалыши в дикой природе1. Первые шаги.mkv
Format : Matroska
Format version : Version 4
File size : 1.17 GiB
Duration : 48 min 24 s
Overall bit rate : 3 469 kb/s
Encoded date : UTC 2020-03-09 05:05:29
Writing application : mkvmerge v6.6.0 ('The Edge Of The In Between') built on Dec 1 2013 17:55:00
Writing library : libebml v1.3.0 + libmatroska v1.4.1
Video
ID : 1
Format : AVC
Format/Info : Advanced Video Codec
Format profile : [email protected]
Format settings : CABAC / 4 Ref Frames
Format settings, CABAC : Yes
Format settings, Reference : 4 frames
Codec ID : V_MPEG4/ISO/AVC
Bit rate : 3 208 kb/s
Width : 720 pixels
Height : 576 pixels
Display aspect ratio : 16:9
Frame rate mode : Variable
Original frame rate : 25.000 FPS
Standard : Component
Color space : YUV
Chroma subsampling : 4:2:0
Bit depth : 8 bits
Scan type : Interlaced
Scan type, store method : Separated fields
Scan order : Top Field First
Default : Yes
Forced : No
Color range : Limited
Color primaries : BT.601 PAL
Transfer characteristics : BT.470 System B/G
Matrix coefficients : BT.470 System B/G
Audio
ID : 2
Format : MPEG Audio
Format version : Version 1
Format profile : Layer 2
Codec ID : A_MPEG/L2
Codec ID/Hint : MP2
Duration : 48 min 24 s
Bit rate mode : Constant
Bit rate : 192 kb/s
Channel(s) : 2 channels
Sampling rate : 48.0 kHz
Compression mode : Lossy
Stream size : 66.5 MiB (6%)
Language : Russian
Default : Yes
Forced : No
Text
ID : 3
Format : UTF-8
Codec ID : S_TEXT/UTF8
Codec ID/Info : UTF-8 Plain Text
Title : СВ-Дубль
Language : Russian
Default : No
Forced : No

Содержание

01. Первые шаги / First Steps
Первые три месяца – самые важные. В Кении новорождённой слонихе предстоит научиться держаться рядом с сородичами. Недельному детенышу цейлонской макаки – приспособиться к жизни среди людей. Пятинедельный детеныш песца должен научиться охотиться прежде, чем наступит суровая зима. А маленькая горилла – ориентироваться в чаще экваториального леса.
Это рассказ о том, как уцелеть в условиях дикой природы. История первых месяцев жизни на земле.
02. Учеба / Testing Limits
В Калифорнии подрастающему детёнышу морской выдры предстоит понять, чем питаться и чего избегать в мире, где господствует человек. На Шри-Ланке маленькая макака должна научиться отстаивать лидерство. Детеныши арктической лисицы вынуждены соперничать друг с другом за каждый кусок съестного, пятимесячный слоненок – встраивать родственные связи, а горная горилла – находить съедобные растения и плоды. Это рассказ о том, как уцелеть в условиях дикой природы. История первых месяцев жизни на земле.
03. Новые рубежи / New Frontiers
Время идет, детенышам скоро исполнится год… В этом возрасте нашим знакомым малышам предстоит сделать шаг во взрослую жизнь. Годовалая слониха научится добывать пищу, детеныш песца превратится в самостоятельное животное. Маленькой макаке придется обходиться без материнской защиты, а представителю редкого вида – горной горилле – развить ловкость, чтобы выжить в экваториальных лесах Уганды. Это рассказ о том, как уцелеть в условиях дикой природы. История первого года жизни на Земле.

Скриншоты

Релиз от: kyba

RelizMAN

Post 09-Mar-2020 13:35

[Quote]

Информация о фильме
Название: Семь миров, одна планета
Оригинальное название: Seven Worlds, One Planet
Год выхода: 2019
Жанр: документальный, природа, флора, фауна
Режиссер: Джилз Баджер, Чадден Хантер, Эмма Нэппер
В ролях: Дэвид Аттенборо
О фильме: Двести миллионов лет назад Земля сильно отличалась от того, что мы видим сегодня. Она была полностью покрыта морем, которое окружало один единственный супер-континент, называемый Пангеей. А затем... Пангея начала распадаться. В результате образовались знакомые нам семь континентов. Мы увидим, как развивалась жизнь на каждом из них, и как получилось то удивительное, чудесное разнообразие, которое мы видим.
Над сериалом, снятым за 1794 дня, работали более 1500 человек в 41 стране мира.

Страна: Великобритания, Китай, США, Германия, Франция
Студия: BBC Studios, BBC Natural History Unit (NHU)
Продолжительность: ~00:52:00 серия
Перевод: Профессиональный (многоголосный, закадровый) - FocusX
Файл
Качество: HDRip
Видео: XviD, 720x400, 1615 Kbps
Аудио: AC3, 6 ch, 384 kbps
Релиз:

Скриншоты

RelizMAN

Post 06-Mar-2020 15:35

[Quote]

Название: Золотая лихорадка: Бурные воды
Оригинальное название: Gold Rush: White Water
Год выпуска: 2018
Жанр: Документальный, природа, география, путешествия, приключения, исследование
Выпущено: США, Discovery Communications, LLC.
Режиссер: Кристофер Голдинг
О фильме: В самых далеких и необжитых уголках Аляски таятся огромные залежи золота, но добраться до них могут лишь упорные и стойкие старатели, которые не боятся тяжелой и опасной работы. Встречайте ветеранов «Золотой лихорадки» − отчаянных «Диких парней из Дакоты»! Фред Хёрт и его сын Дастин возвращаются, чтобы добывать золото совершенно новым, потенциально прибыльным, но гораздо более опасным способом. Они будут отслеживать источник золотых россыпей, поднимаясь по течению к верховьям порожистой горной реки. Им придется, рискуя жизнью, погружаться на дно стремнин и глубоких впадин у подножия водопадов. Хватит ли золота бурной реки, чтобы оправдать настолько опасную затею золотоискателей? Узнаем совсем скоро!

Официальный сайт
Качество: HDTVRip
Видео: XviD, ~ 1600 Кбит/с, 720x400
Аудио: AC3, 2 ch, 192 Кбит/c
Продолжительность: 1 x ~ 00:44:00
Перевод: Профессиональный (двухголосый, закадровый)

[color=navy]Скриншоты[/color]



[color=navy]Внимание! Раздача ведётся путём добавления новых серий![/color]

Внимание! Раздача ведётся путём добавления новых серий; при каждом добавлении создfётся новый торрент. Чтобы начать докачку новой серии, пользователям необходимо сделать следующее: (1) остановить скачивание, (2) удалить старый торрент у себя из клиента (старые серии удалять не надо), (3) скачать новый торрент и запустить его у себя в клиенте вместо старого, при этом указать клиенту путь в старую папку куда и должно происходить скачивание новых серий.
Ваш клиент при этом должен произвести хеширование (проверку) старой папки (если не производит сам - помогите ему сделать это), и будет докачивать только те серии которых у вас ещё нет. Старые серии при этом не удаляются, а продолжают раздаваться!
Eсли вы уже удалили старые серии, то предотвратить повторную закачку старых серий можно, отжав галочку в соответсвующих местах при запуске нового торрента.
Благодарю за отличный постер ValkiriaGF
Релиз от:

RelizMAN

Post 03-Mar-2020 17:20

[Quote]

Название: Махинаторы. Машина мечты
Оригинальное название: Wheeler Dealers: Dream Car
Год выпуска: 2020
Жанр: Документальный, история, автомобилестроение
Выпущено: Великобритания, Attaboy TV LTD for Discovery Channel
Режиссер: Ричард Хили, Уоррен Грин, Дэниэл Аллум, Майкл Вуд, Эд Чайна
В ролях: Майк Брюэр, Марк Пристли
О фильме: Майк Брюйер берётся за самый сложный в его карьере проект: знаменитый автодилер хочет помочь незадачливым автолюбителям приобрести автомобиль, о котором они мечтают, но не могут себе позволить. Вместе с опытным автомехаником Марком Пристли по прозвищу Элвис он модернизирует нынешнюю машину клиента, а затем, продав её, покупает автомобиль поновее и подороже, улучшает его и вновь перепродаёт, с каждым разом увеличивая прибыль. В результате Майк, наконец, добирается до автомобиля, о котором мечтает клиент. Попутно Майк раскрывает секреты вторичного авторынка, в том числе рассказывает, какие подержанные машины наиболее ценные, как можно повысить их стоимость и выгодно продать, чтобы наконец заполучить машину мечты.

Официальный сайт
Качество: HDTVRip
Видео: XviD, ~ 1600 Кбит/с, 720x400
Аудио: AC3, 2 ch, 192 Кбит/с
Продолжительность: 3 x ~ 00:44:00
Перевод: Дублированный

[color=blue]Скриншоты[/color]



[color=blue]Название серий[/color]

01. Land Rover 2A.
02. Ford Escort Mk2.
03. Nissan Skyline.

[color=blue]Внимание! Раздача ведётся путём добавления новых серий![/color]

Внимание! Раздача ведётся путём добавления новых серий; при каждом добавлении создfётся новый торрент. Чтобы начать докачку новой серии, пользователям необходимо сделать следующее: (1) остановить скачивание, (2) удалить старый торрент у себя из клиента (старые серии удалять не надо), (3) скачать новый торрент и запустить его у себя в клиенте вместо старого, при этом указать клиенту путь в старую папку куда и должно происходить скачивание новых серий.
Ваш клиент при этом должен произвести хеширование (проверку) старой папки (если не производит сам - помогите ему сделать это), и будет докачивать только те серии которых у вас ещё нет. Старые серии при этом не удаляются, а продолжают раздаваться!
Eсли вы уже удалили старые серии, то предотвратить повторную закачку старых серий можно, отжав галочку в соответсвующих местах при запуске нового торрента.
Благодарю за постер Abakan2000
Релиз от:

Vi$itReal

Post 03-Mar-2020 03:05

[Quote]

Информация о фильме
Название: Настоящая война престолов
Оригинальное название: The Real War of Thrones
Год выхода: 2017
Жанр: Документальный, познавательный, история
Режиссер: Ванесса Понте , Ален Брюнар
О фильме:
В бурном Средневековье, когда мир еще продолжал формироваться, сильнейшие династии Европы боролись за господство на континенте. Эта эпическая сага о соперничающих династиях приглашает зрителей окунуться в мрачную атмосферу Средневековья и знать, как к стремление к могуществу и человеческие страсти повлияли на ход мировой истории и заложили политические и социальные основы современной Европы и всего Западного мира.
Эти влиятельные семьи сталкивались на полях сражений, но самая сложная и захватывающая игра происходила за кулисами. Мощные стены средневековых замков скрывали мир стратегических альянсов, интриг, предательств и убийств. Эти эпические столкновения продолжались на протяжении нескольких веков, а их отголоски до сих пор слышны в современной культуре.

Страна: Франция
Студия: France 5 Television
Продолжительность: 4 x ~ 00:43:25
Перевод: Профессиональный (двухголосый закадровый) СВ-Дубль
Файл
Кодек: AVC/H.264
Качество: DVB
Видео: 720x576 (16:9) AVC (H.264) [email protected], ~ 2189 kbps, 25 fps
Звук: Русский 48 kHz, MPEG Layer 2, 2 ch, ~192.00 kbps avg
Субтитры: Русские, отключаемые
Семпл

Содержание

01. Объявление войны / War is Declared 1328-1364
В 1328 году, после смерти последнего короля из династии Капетингов, корона Франции перешла к династии Валуа. Это привело в ярость молодого английского короля Эдуарда III Плантагенета, который считал себя законным наследником французского престола. Из-за соперничества за корону Франции связи между двумя странами будут разорваны на несколько веков. Монархи начали самую долгую и кровавую войну в истории Европы. Сегодня её называют Столетней войной. Эпические исторические реконструкции переносят нас на поля сражений и в королевские покои, мы узнаем, как жажда власти и личные амбиции правителей изменили границы Франции и других европейских стран.
02. Орлеанская дева и безумный король / The Mad King and the Maiden 1392-1453
В начале XV века ослабленную Францию ждали новые потрясения. В возрасте 24 лет король Франции Карл VI сошел с ума. Франция раздираема гражданской войной между бургиньонами и арманьяками. Эти смутные времена поощряют амбиции короля Англии Генриха Пятого, трон короля Франции снова находится в опасности. Столетняя война разгорается с новой силой. Но на помощь дофину, будущему королю Франции Карлу VII, приходит 17-летняя крестьянская девушка из Домреми, словно посланная Небесами, которая видит своей миссией освобождение Франции от английских захватчиков. Так родилась легенда Жанны д'Арк.
03. Брачные игры престолов / The Marriage Game 1461-1483
Во второй половине XV века на трон Франции взошёл коварный король Людовик XI. Будучи гениальным стратегом, блестяще владеющим искусством расставлять ловушки для своих врагов, он получил прозвище "Всемирный паук". Однако макиавеллиевским планам Людовика угрожали два серьезных противника – бургундский герцог Карл Смелый и Эдуард IV Йоркский, король Англии. Готовились новые сражения. Французское королевство с трудом удерживало власть. Чтобы выиграть в этой борьбе все государства строили матримониальные планы, вступив в сложную игру бракосочетаний.
04. Король и император / The King and the Emperor 1515-1558
В начале XVI века Карл Габсбургский имел все шансы стать самым влиятельным человеком в Европе. Честолюбивый наследник испанского трона планировал также занять престол Священной Римской империи. Но Франциск I, герой битвы при Мариньяно и новый король Франции, также следил за императорским троном и был полон решимости защитить свои итальянские владения. Интриги, предательство, тюремное заключение – вся Европа, затаив дыхание, наблюдала за столкновением между императором Карлом V и королем Франциском I. Борьба привела к войне, которая длилась 27 лет. Но другой монарх выступил в роли миротворца.
Релиз от: kyba

RelizMAN

Post 03-Mar-2020 01:20

[Quote]

Информация о фильме
Название: Настоящая война престолов
Оригинальное название: The Real War of Thrones
Год выхода: 2018
Жанр: Документальный, познавательный, история
Режиссер: Ванесса Понте , Ален Брюнар
О фильме:
Продолжение эпической саги о соперничающих европейских династиях, на этот раз охватывает исторический период, ознаменованный войнами на религиозной почве и столкновениями протестантов и католиков. В XVI веке религия и власть были неразрывно связаны между собой. Второй сезон "Настоящей войны престолов" исследует династические конфликты эпохи Возрождения, отмеченные религиозными войнами, которые сформировали современную Европу. Эти братоубийственные войны между католиками и протестантами оставили неизгладимый след в истории. Сериал завершается ратификацией Нантского эдикта, который заложил основы принципов религиозной свободы и терпимости, развитие этих идей затем произошло уже в эпоху Просвещения.

Страна: Франция
Студия: France 5 Television
Продолжительность: 1 x ~ 00:43:57
Перевод: Профессиональный (двухголосый закадровый) СВ-Дубль
Файл
Кодек: AVC/H.264
Качество: DVB
Видео: 720x576 (16:9) AVC (H.264) [email protected], ~ 1631 kbps, 25 fps
Звук: Русский 48 kHz, MPEG Layer 2, 2 ch, ~192.00 kbps avg
Субтитры: Русские, отключаемые
Семпл

Содержание

1-я серия. Игра королев. 1542- 1559 / Game of Queens. 1542- 1559
Во времена расцвета Ренессанса совсем еще юная королева Шотландии вынуждена покинуть свою родину. Французский король держит в напряжении всю Европу и изгоняет англичан из своего королевства. А тем временем самая обширная империя Запада распадается. Европа стоит на пороге кровопролитных войн, которые продлятся целых тридцать лет.
2-я серия. Во Имя Господа. 1559- 1561. Во второй половине XVI века религия диктовала законы. В Англии новая королева, протестантка. Королева Шотландии, ставшая королевой Франции, рискует все потерять. Король Франции не может обеспечить мир в собственном королевстве. Но вскоре произойдет событие, которое смешает все карты и по-новому раздаст престолы.
3-я серия. Европа воспламеняется. 1561-1569. Распространение протестантизма вызывает новую войну в Европе. В католической Франции правит регент. Испания борется с восстанием. В Шотландии королева рискует потерять трон ради любви. Протестантская Англия подливает масла в огонь. Все монархи Европы с трудом удерживают власть.
4-я серия. Кровавая свадьба. 1567-1574 годы. Королева Англии опасается за свою жизнь. Бывшую королеву Шотландии держит в плену её кузен-протестант, и она пытается бежать. Король Франции бессилен предотвратить бойню, которая станет символом религиозных войн. Кровавое безумие постепенно охватывает Европу.
5-я серия. Братья-враги. 1575-1584. У Франции новый король. Но в стране идет война. И брат постоянно предает его. В Англии Королева-девственница влюблена, а король Испании получает уникальную возможность увеличить свою империю. Ревность, сексуальные скандалы и предательство превратили Европу в пороховую бочку.
6-я серия. Конец династии Валуа. 1584-1594. Теперь французский король пытается спасти свой трон. Его сестра объявляет ему войну. Его злейший враг служит Испании. В Англии королева готовится к величайшей морской битве эпохи Возрождения. По всей Европе плетутся заговоры, ведутся битвы, и скоро прольется королевская кровь.

Скриншоты

Релиз от: kyba

RelizMAN

Post 01-Mar-2020 13:35

[Quote]

Информация о фильме
Название: Тутанхамон: жизнь, смерть и бессмертие
Оригинальное название: Tutankhamun - Life, Death and Legacy
Год выхода: 2019
Жанр: Документальный, история, египтология
Режиссер: Джейми Симпсон
В ролях: Ракша Дэйв, Джон Сержант, Дэн Сноу
О фильме:
Тутанхамон был одним из самых могущественных людей на земле. Как и все фараоны, умирая, он хотел, чтобы его имя жило вечно. Но со дня его погребения до 1922 года, когда гробница была обнаружена археологом Говардом Картером, о фараоне почти забыли. Более 3.000 лет забвения. Но в ХХ веке все изменилось, и молодой фараон стал самым знаменитым египтянином в мире.

Страна: Великобритания
Студия: Voltage TV
Продолжительность: 3 x ~ 00:47:22
Перевод: Профессиональный (двухголосый закадровый) СВ-Дубль
Файл
Кодек: AVC/H.264
Качество: DVB
Видео: 720x576 (16:9) AVC (H.264) [email protected], ~ 2258 kbps, 25 fps
Звук: Русский 48 kHz, MPEG Layer 2, 2 ch, ~192.00 kbps avg
Субтитры: Русские, отключаемые
Семпл

Содержание

1-я серия.Авторы рассказывают о том, как была найдена гробница Тутанхамона, о жизни молодого царя и его родных, о том, как работали, готовили и одевались жители Древнего Египта, и как получилось, что 3 000 лет тайна жизни Тутанхамона была скрыта в песках Долины Царей.
2-я серия.Авторы откроют новые секреты молодого царя и покажут результаты трехмерного сканирования, которое раскрывает тайны захоронения Тутанхамона. Чем болел молодой фараон, почему был похоронен в такой спешке, почему гробница знаменитого царя меньше, чем гробницы других фараонов, а также о "Тут-мании", охватившей весь мир после сенсационного открытия Говарда Картера.
3-я серия. Авторы рассказывают об удивительных находках, говорящих о древних тайнах и интригах, окружавших юного царя. Имя Тутанхамона должны были забыть навсегда, что и произошло бы, но открытие 1922 года обеспечило юному фараону новый путь в бессмертие.
Релиз от: kyba

Vi$itReal

Post 29-Feb-2020 19:50

[Quote]

Название: Стальные парни
Оригинальное название: Steel Buddies
Год выпуска: 2016-2017
Жанр: Документальный, техника
Выпущено: Германия, Discovery Channel
В ролях: Майкл Манусакис
О фильме: Немецкая команда, возглавляемая Михаэлем Манусакисом, с удовольствием превращает любую старую военную технику – от бронетранспортёров и пожарных машин до внедорожников – в удобный и стильный личный транспорт. О том, как они это делают, рассказывает программа Discovery Channel «Стальные парни», которая представляет второй сезон. Михаэль Манусакис – житель тихого немецкого городка Вестервальд. Вместе со своими единомышленниками он создал команду из лучших в Европе специалистов по устаревшей военной технике. Манусакису удалось заключить договор, согласно которому отжившие свое разведывательные машины, грузовики, внедорожники, бронетранспортеры, вездеходы – словом, все, что списывается в Европе американской армией, – достается именно Манусакису. Компанию Михаэля Morlock-Motors называют самой безумной автофирмой в Германии, и это правда: ее работникам иногда приходится искать детали даже на городских автосвалках, однако игра стоит свеч. По словам Михаэля, их переделанная военная техника пользуется прямо-таки бешенной популярностью: мощные и при этом комфортные бронированные машины обретают индивидуальный дизайн в соответствии со всеми требованиями своих «гражданских» владельцев.

Официальный сайт
Качество: HDTVRip
Видео: XviD, ~ 1600 Кбит/с, 720x400
Аудио: AC3, 2 ch, 192 Кбит/c
Продолжительность: 8 x ~ 00:44:00
Перевод: Профессиональный (одноголосый, закадровый)

[color=blue]Скриншоты[/color]



[color=blue]Внимание! Раздача ведётся путём добавления новых серий![/color]

Внимание! Раздача ведётся путём добавления новых серий; при каждом добавлении создfётся новый торрент. Чтобы начать докачку новой серии, пользователям необходимо сделать следующее: (1) остановить скачивание, (2) удалить старый торрент у себя из клиента (старые серии удалять не надо), (3) скачать новый торрент и запустить его у себя в клиенте вместо старого, при этом указать клиенту путь в старую папку куда и должно происходить скачивание новых серий.
Ваш клиент при этом должен произвести хеширование (проверку) старой папки (если не производит сам - помогите ему сделать это), и будет докачивать только те серии которых у вас ещё нет. Старые серии при этом не удаляются, а продолжают раздаваться!
Eсли вы уже удалили старые серии, то предотвратить повторную закачку старых серий можно, отжав галочку в соответсвующих местах при запуске нового торрента.
Благодарю за отличный постер ValkiriaGF
Релиз от:
 

Current time is: 09-Apr 04:06

All times are UTC + 3