Reply to topic
DL-List and Torrent activity [Update пиров]
Size:  3.88 GB   |    Registered:  3 years 7 months   |    Completed:  2 times
Seeders:  371  [  0 KB/s  ]   Leechers:  26  [  0 KB/s  ]  
 
     
 
 
Author Message

RelizMAN ®

11

Post 29-Aug-2016 02:15

[Quote]

(Prazak) Pražák Quartet
Дмитрий Шостакович / Dmitri Shostakovich: String Quartets No. 14 & 15
- Формат записи/Источник записи: [SACD-R][OF]
Наличие водяных знаков: Нет
Год издания/переиздания диска: 2014
Жанр: Classical; Chamber; Strings
Издатель(лейбл): Praga Digital
Продолжительность: 01:08:56
Наличие сканов в содержимом раздачи: Буклет PDF-Треклист:
STRING QUARTET No.14 in F sharp major, Op. 142
01] I. Allegretto
02] II. Adagio
03] III. Allegretto-Poco meno mosso-A tempo-Adagio
TWO PIECES FOR STRING QUARTET, Op. 36
04] I. Elegy.Adagio
05] II. Polka.Allegretto
STRING QUARTET No. 15 in E flat minor, Op. 144
06] I. Elegy.Adagio
07] II. Serenade.Adagio
08] III. Intermezzo.Adagio
09] IV. Nocturne.Adagio
10] V. Funeral march.Adagio molto
11] VI. Epilogue.Adagio-Контейнер: ISO (*.iso)
Тип рипа: image
Разрядность: 64(2,8 MHz/1 Bit)
Формат: DST64
Количество каналов: 5.1; 2.0-

Лог DR

foobar2000 1.3.10 / Замер динамического диапазона (DR) 1.1.1Дата отчёта: 2016-08-28 14:05:23
--------------------------------------------------------------------------------Анализ: Prazak Quartet / Dmitri Shostakovich-The two last String Quartets Op.142 and Op.144, Two Pieces for String Quartet,Op.36--------------------------------------------------------------------------------
DR Пики RMS Продолжительность трека--------------------------------------------------------------------------------DR14 -6.61 дБ -28.45 дБ 8:36 01-STRING QUARTET No.14 in F sharp major,Op.142-I.AllegrettoDR14 -9.74 дБ -31.72 дБ 11:04 02-II.AdagioDR14 -6.70 дБ -28.38 дБ 8:45 03-III.Allegretto-Poco meno mosso-A tempo-AdagioDR12 -7.00 дБ -29.52 дБ 4:40 04-TWO PIECES FOR STRING QUARTET,Op.36-I.Elegy.AdagioDR13 -6.64 дБ -27.95 дБ 2:23 05-II.Polka.AllegrettoDR13 -14.26 дБ -35.42 дБ 11:00 06-STRING QUARTET No.15 in E flat minor,Op.144-I.Elegy.AdagioDR17 -6.31 дБ -31.49 дБ 5:38 07-II.Serenade.AdagioDR13 -7.39 дБ -29.23 дБ 1:38 08-III.Intermezzo.AdagioDR13 -11.84 дБ -31.63 дБ 4:32 09-IV.Nocturne.AdagioDR13 -6.99 дБ -28.63 дБ 4:32 10-V.Funeral march.Adagio moltoDR16 -6.74 дБ -31.45 дБ 6:08 11-VI.Epilogue.Adagio--------------------------------------------------------------------------------
Количество треков: 11Реальные значения DR: DR14
Частота: 2822400 Гц / Частота PCM: 44100 ГцКаналов: 6Разрядность: 24Битрейт: 16934 кбит/сКодек: DST64================================================================================
--------------------------------------------------------------------------------Анализ: Prazak Quartet / Dmitri Shostakovich-The two last String Quartets Op.142 and Op.144, Two Pieces for String Quartet,Op.36--------------------------------------------------------------------------------
DR Пики RMS Продолжительность трека--------------------------------------------------------------------------------DR14 -6.61 дБ -26.10 дБ 8:36 01-STRING QUARTET No.14 in F sharp major,Op.142-I.AllegrettoDR13 -9.74 дБ -29.27 дБ 11:04 02-II.AdagioDR13 -6.70 дБ -26.00 дБ 8:45 03-III.Allegretto-Poco meno mosso-A tempo-AdagioDR13 -7.00 дБ -27.00 дБ 4:40 04-TWO PIECES FOR STRING QUARTET,Op.36-I.Elegy.AdagioDR14 -6.64 дБ -25.42 дБ 2:23 05-II.Polka.AllegrettoDR14 -14.26 дБ -33.06 дБ 11:00 06-STRING QUARTET No.15 in E flat minor,Op.144-I.Elegy.AdagioDR17 -6.31 дБ -29.12 дБ 5:38 07-II.Serenade.AdagioDR14 -7.39 дБ -26.82 дБ 1:38 08-III.Intermezzo.AdagioDR13 -12.05 дБ -30.43 дБ 4:32 09-IV.Nocturne.AdagioDR13 -6.99 дБ -26.71 дБ 4:32 10-V.Funeral march.Adagio moltoDR17 -6.74 дБ -29.36 дБ 6:08 11-VI.Epilogue.Adagio--------------------------------------------------------------------------------
Количество треков: 11Реальные значения DR: DR14
Частота: 2822400 Гц / Частота PCM: 44100 ГцКаналов: 2Разрядность: 24Битрейт: 5645 кбит/сКодек: DST64================================================================================
Доп. информация: PRD/DSD 250306 (2014)
SACD rip via PS3 to iso (3.85GB)
Источник (релизер): PS³SACD
http://sa-cd.net/showtitle/10099
[doutdess.top].t142187.torrent
Torrent: Registered [ 2016-08-29 02:15 ] · 910C191B1D74922CB9A38B15A47B87E09F70B4F2

39 KB

Status: checked
Completed: 2 times
Size: 3.88 GB
[SACD-R][OF] (Prazak) Pražák Quartet - Дмитрий Шостакович / Dmitri Shostakovich: String Quartets No. 14 & 15 - 2014 (Classical; Chamber; Strings) скачать торрент бесплатно и без регистрации

[Profile] [PM]
Forum Topic Author Size
Hi-Res stereo классика и классика в современной обработке [SACD-R][OF] (Andre) André Cluytens, Orchestre de la Société des Concerts du Concervatoire - Georges Bizet: L\'Arlésienne Suites Nos. 1 & 2, Carmen Suite - 1965/2011... Vi$itReal 1.84 GB
Hi-Res stereo классика и классика в современной обработке [SACD-R][OF] (Classical, Double Bass, Organ) Gary Karr - Adagio D\'Albinoni - 2014 (Beethoven, Franck, Handel, J.S. Bach) - 2014 Vi$itReal 1.64 GB
Многоканальная музыка классика и классика в современной обработке [SACD-R][OF] (Parkanyi Quartet) Párkányi Quartet - Claude Debussy & Maurice Ravel: String Quartets - 2004 (Classical; Chamber; Strings) RelizMAN 2.92 GB
Hi-Res stereo классика и классика в современной обработке [SACD-R][OF] 4 Great Operas (Esoteric Boxset): Mozart - Le Nozze di Figaro; Rossini - Il Barbiere di Siviglia; Verdi - La Traviata; Puccini - La Boheme (Various Artist) (Limited edition) - 2013... Vi$itReal 21.64 GB
Hi-Res stereo классика и классика в современной обработке [SACD-R][OF] 5 Great Operas (Esoteric Boxset): Mozart: Die Zauberflote; Weber: Der Freischutz; Verdi: Il Trovatore; Mascagni: Cavalleria Rusticana; Leoncavallo: I Pagliacci (Various Artist)(Limited... Vi$itReal 23.13 GB
Hi-Res stereo классика и классика в современной обработке [SACD-R][OF] Aage Kvalbein & Iver Kleive - Til Trøst - Meditasjoner for cello og piano - 2008/2017 (Classical) Vi$itReal 805 MB
Многоканальная музыка классика и классика в современной обработке [SACD-R][OF] Alan Civil, Sir Neville Marriner, Academy St. Martin in The Fields - Mozart: The 4 Horn Concertos - 1972/2002 (Orchestral, Horn) RelizMAN 3.22 GB
Hi-Res stereo классика и классика в современной обработке [SACD-R][OF] Alban Berg & Bela Bartok – Violin Concertos (Isaac Stern, New York Philharmonic, Leonard Bernstein) - 2013 (Classical/Orchestral/Violin) Vi$itReal 1.09 GB
Display posts:    

Current time is: 01-Apr 15:15

All times are UTC + 3



You cannot post new topics in this forum
You cannot reply to topics in this forum
You cannot edit your posts in this forum
You cannot delete your posts in this forum
You cannot vote in polls in this forum
You cannot attach files in this forum
You can download files in this forum