Reply to topic
DL-List and Torrent activity [Update пиров]
Size:  1.21 GB   |    Registered:  6 days   |    Completed:  0 times
Seeders:  890  [  0 KB/s  ]   Leechers:  14  [  0 KB/s  ]  
 
     
 
 
Author Message

Vi$itReal ®

12

Post 26-Mar-2020 07:25

[Quote]

Graham Ross, Choir of Clare College Cambridge, Dmitri Ensemble / Arvo Part, MacMillan, Vasks - Stabat Mater
Формат записи/Источник записи: [TR24][OF]
Наличие водяных знаков: Нет
Год издания/переиздания диска: 2020
Жанр: Classical
Издатель (лейбл): Harmonia Mundi
Продолжительность: 01:19:44
Наличие сканов в содержимом раздачи: Буклет PDF
Треклист:
Pärt, Arvo (b.1935) :
01. Da pacem, Domine (mixed choir a cappella) 4:25
02. The Woman with the Alabaster Box (mixed choir a cappella) 6:05
Vasks, Peteris (b.1946) :
03. Plainscapes(mixed choir, violin and cello) 15:00
Pärt, Arvo (b.1935) :
04. Magnificat (mixed choir a cappella) 7:33
05. Nunc dimittis (mixed choir a cappella) 6:50
MacMillan, James (b.1959) :
06. Miserere (mixed choir a cappella) 12:24
Pärt, Arvo (b.1935) :
07. Stabat Mater (mixed choir and string orchestra) 27:27-Choir of Clare College Cambridge, Dmitri Ensemble
Graham Ross-Контейнер: FLAC (*.flac)
Тип рипа: tracks
Разрядность: 24/96
Формат: PCM
Количество каналов: 2.0

Лог проверки качества

foobar2000 1.5.2 / Dynamic Range Meter 1.1.1log date: 2020-03-26 11:47:47
--------------------------------------------------------------------------------Analyzed: Choir of Clare College, Cambridge, The Dmitri Ensemble & Graham Ross / Arvo Pärt: Stabat--------------------------------------------------------------------------------
DR Peak RMS Duration Track--------------------------------------------------------------------------------DR11 -7.96 dB -23.80 dB 4:26 01-Da pacem, Domine (mixed choir a cappella)DR13 -5.04 dB -25.10 dB 6:06 02-The Woman with the Alabaster Box (mixed choir a cappella)DR16 -0.49 dB -21.89 dB 15:00 03-Plainscapes(mixed choir, violin and cello)DR15 -0.50 dB -21.88 dB 7:34 04-Magnificat (mixed choir a cappella)DR15 -0.50 dB -22.47 dB 6:51 05-Nunc dimittis (mixed choir a cappella)DR14 -0.50 dB -21.19 dB 12:24 06-Miserere (mixed choir a cappella)DR14 -0.50 dB -19.96 dB 27:27 07-Stabat Mater (mixed choir and string orchestra)--------------------------------------------------------------------------------
Number of tracks: 7Official DR value: DR14
Samplerate: 96000 HzChannels: 2Bits per sample: 24Bitrate: 2156 kbpsCodec: FLAC================================================================================
Источник (релизер): PrestoClassical
[doutdess.top].t393944.torrent
Torrent: Registered [ 2020-03-26 07:25 ] · 782B4B7C2BF33598F3AC06BE4581678EAF9BEF04

25 KB

Status: checked
Completed: 0 times
Size: 1.21 GB
[TR24][OF] Graham Ross, Choir of Clare College Cambridge, Dmitri Ensemble - Arvo Part, MacMillan, Vasks - Stabat Mater - 2020 (Classical) скачать торрент бесплатно и без регистрации

[Profile] [PM]
Forum Topic Author Size
Многоканальная музыка классика и классика в современной обработке [TR24][OF] Áyax (Ayax) Llorente, Orlando Bass & Maurici Esteller - La Nuit de Mai - (Rebecca Clarke, Gabriel Faure (Fauré), Orlando Bass, Claude Debussy) 2019 (Classical | Chamber Music) RelizMAN 1.24 GB
Классика в современной обработке, Classical Crossover lossy и lossless [TR24][OF] (Hi-Res)Marion Treupel-Franck - Voice of the Soul - Flute Music by Jean Daniel Braun - 2017, FLAC (tracks) lossless, (Classical, Baroque Era) Vi$itReal 678 MB
Этническая музыка Индии lossless [TR24][OF] (Indian Classical, Sitar, World Music) [WEB] Anoushka Shankar - Home - 2015, FLAC (tracks), lossless RelizMAN 598 MB
Саундтреки к играм lossless [TR24][OF] (Score) [WEB] Sudden Strike 4 (Original Game Soundtrack) (by Peter Antovszki) - 2017, FLAC (tracks), lossless RelizMAN 424 MB
Hi-Res stereo и Многоканальная музыка Саундтреки [TR24][OF] 2Cellos - Score - 2017 (Symphonic Rock) RelizMAN 608 MB
Hi-Res stereo классика и классика в современной обработке [TR24][OF] A French Baroque Diva: Arias for Marie Fel by Rameau, Lacoste, Lalande, Rousseau, Fiocco, Mondonville (Carolyn Sampson, Ex Cathedra & Jeffrey Skidmore) - 2014 (Baroque, Opera, Vocal,... Vi$itReal 1.37 GB
Hi-Res stereo классика и классика в современной обработке [TR24][OF] A Sousa Celebration - Royal Scottish National Orchestra, Kristjan Jarvi - 2017 (Classical) Vi$itReal 1.21 GB
Hi-Res stereo классика и классика в современной обработке [TR24][OF] A Vaughan Williams Christmas - Chapel Choir Of The Royal Hospital Chelsea, William Vann - 2018 (Classical) Vi$itReal 1.18 GB
Display posts:    

Current time is: 01-Apr 14:15

All times are UTC + 3



You cannot post new topics in this forum
You cannot reply to topics in this forum
You cannot edit your posts in this forum
You cannot delete your posts in this forum
You cannot vote in polls in this forum
You cannot attach files in this forum
You can download files in this forum