Reply to topic
DL-List and Torrent activity [Update пиров]
Size:  2.92 GB   |    Registered:  3 years 8 months   |    Completed:  2 times
Seeders:  113  [  0 KB/s  ]   Leechers:  36  [  0 KB/s  ]  
 
     
 
 
Author Message

RelizMAN ®

11

Post 21-Jul-2016 15:00

[Quote]

(Parkanyi Quartet) Párkányi Quartet
Claude Debussy & Maurice Ravel: String Quartets
- Формат записи/Источник записи: [SACD-R][OF]
Наличие водяных знаков: Нет
Год издания/переиздания диска: 2004
Жанр: Classical; Chamber; Strings
Издатель(лейбл): Praga Digital
Продолжительность: 00:56:40
Наличие сканов в содержимом раздачи: Только обложка альбома-Треклист:
Maurice Ravel: Quartet for Strings in F major (1902-1903; France)
01] First Movement - Allegro moderato - Très doux
02] Second Movement - Scherzo - Allegro molto
03] Third Movement - Andante sostenuto
04] Fourth Movement - Finale: allegro molto
Claude Debussy: Quartet for Strings in G minor, Op. 10 (1893; France)
05] First Movement - Animé et très décidé
06] Second Movement - Scherzo (assez vif et bien rythmé)
07] Third Movement - Andantino, doucement expressif
08] Fourth Movement - Très modéré - Très mouvementé - Très animé-Párkányi Quartet-Контейнер: ISO (*.iso)
Тип рипа: image
Разрядность: 64(2,8 MHz/1 Bit)
Формат: DST64
Количество каналов: 5.0; 2.0-Доп. информация: Praga Digitals PRD/DSD 250208 (2004)
SACD rip via PS3 to iso (2.92GB)
Источник (релизер): eusebio (PS³SACD)
http://sa-cd.net/showtitle/2470

DR 15/14

foobar2000 1.3.10 / Замер динамического диапазона (DR) 1.1.1
Дата отчёта: 2016-07-19 21:25:03
--------------------------------------------------------------------------------
Анализ: PARKÁNYÍ QUARTET / Maurice RAVEL, String Quartet in F - Claude DEBUSSY, String Quartet in G minor
--------------------------------------------------------------------------------
DR Пики RMS Продолжительность трека
--------------------------------------------------------------------------------
DR15 -9.37 дБ -32.12 дБ 8:56 01-RAVEL - String Quartet - First Movement - Allegro moderato - Très doux
DR16 -8.09 дБ -33.17 дБ 6:43 02-RAVEL - String Quartet - Second Movement - Scherzo - Allegro molto
DR16 -8.97 дБ -35.00 дБ 9:24 03-RAVEL - String Quartet - Third Movement - Andante sostenuto
DR14 -6.28 дБ -30.42 дБ 5:09 04-RAVEL - String Quartet - Fourth Movement - Finale: allegro molto
DR13 -6.52 дБ -29.28 дБ 6:45 05-DEBUSSY - String Quartet - First Movement - Animé et très décidé
DR15 -9.39 дБ -33.14 дБ 4:07 06-DEBUSSY - String Quartet - Second Movement - Scherzo (assez vif et bien rythmé)
DR15 -13.16 дБ -37.32 дБ 7:50 07-DEBUSSY - String Quartet - Third Movement - Andantino, doucement expressif
DR14 -6.93 дБ -29.82 дБ 7:05 08-DEBUSSY - String Quartet - Fourth Movement - Très modéré - Très mouvementé - Très animé
--------------------------------------------------------------------------------
Количество треков: 8
Реальные значения DR: DR15
Частота: 2822400 Гц / Частота PCM: 44100 Гц
Каналов: 5
Разрядность: 24
Битрейт: 14112 кбит/с
Кодек: DST64
================================================================================
--------------------------------------------------------------------------------
Анализ: PARKÁNYÍ QUARTET / Maurice RAVEL, String Quartet in F - Claude DEBUSSY, String Quartet in G minor
--------------------------------------------------------------------------------
DR Пики RMS Продолжительность трека
--------------------------------------------------------------------------------
DR14 -7.80 дБ -26.70 дБ 8:56 01-RAVEL - String Quartet - First Movement - Allegro moderato - Très doux
DR15 -6.53 дБ -27.97 дБ 6:43 02-RAVEL - String Quartet - Second Movement - Scherzo - Allegro molto
DR15 -8.66 дБ -29.67 дБ 9:24 03-RAVEL - String Quartet - Third Movement - Andante sostenuto
DR15 -5.83 дБ -26.01 дБ 5:09 04-RAVEL - String Quartet - Fourth Movement - Finale: allegro molto
DR14 -4.94 дБ -24.82 дБ 6:45 05-DEBUSSY - String Quartet - First Movement - Animé et très décidé
DR14 -9.37 дБ -28.58 дБ 4:07 06-DEBUSSY - String Quartet - Second Movement - Scherzo (assez vif et bien rythmé)
DR15 -11.95 дБ -33.26 дБ 7:50 07-DEBUSSY - String Quartet - Third Movement - Andantino, doucement expressif
DR14 -7.10 дБ -26.12 дБ 7:05 08-DEBUSSY - String Quartet - Fourth Movement - Très modéré - Très mouvementé - Très animé
--------------------------------------------------------------------------------
Количество треков: 8
Реальные значения DR: DR14
Частота: 2822400 Гц / Частота PCM: 44100 Гц
Каналов: 2
Разрядность: 24
Битрейт: 5645 кбит/с
Кодек: DST64
================================================================================
[doutdess.top].t134262.torrent
Torrent: Registered [ 2016-07-21 15:00 ] · BA0BDFAD77E3B23B73A411BFE234B9478ECB6800

30 KB

Status: checked
Completed: 2 times
Size: 2.92 GB
[SACD-R][OF] (Parkanyi Quartet) Párkányi Quartet - Claude Debussy & Maurice Ravel: String Quartets - 2004 (Classical; Chamber; Strings) скачать торрент бесплатно и без регистрации

[Profile] [PM]
Forum Topic Author Size
Hi-Res stereo классика и классика в современной обработке [SACD-R][OF] (Andre) André Cluytens, Orchestre de la Société des Concerts du Concervatoire - Georges Bizet: L\'Arlésienne Suites Nos. 1 & 2, Carmen Suite - 1965/2011... Vi$itReal 1.84 GB
Hi-Res stereo классика и классика в современной обработке [SACD-R][OF] (Classical, Double Bass, Organ) Gary Karr - Adagio D\'Albinoni - 2014 (Beethoven, Franck, Handel, J.S. Bach) - 2014 Vi$itReal 1.64 GB
Многоканальная музыка классика и классика в современной обработке [SACD-R][OF] (Prazak) Pražák Quartet - Дмитрий Шостакович / Dmitri Shostakovich: String Quartets No. 14 & 15 - 2014 (Classical; Chamber; Strings) RelizMAN 3.88 GB
Hi-Res stereo классика и классика в современной обработке [SACD-R][OF] 4 Great Operas (Esoteric Boxset): Mozart - Le Nozze di Figaro; Rossini - Il Barbiere di Siviglia; Verdi - La Traviata; Puccini - La Boheme (Various Artist) (Limited edition) - 2013... Vi$itReal 21.64 GB
Hi-Res stereo классика и классика в современной обработке [SACD-R][OF] 5 Great Operas (Esoteric Boxset): Mozart: Die Zauberflote; Weber: Der Freischutz; Verdi: Il Trovatore; Mascagni: Cavalleria Rusticana; Leoncavallo: I Pagliacci (Various Artist)(Limited... Vi$itReal 23.13 GB
Hi-Res stereo классика и классика в современной обработке [SACD-R][OF] Aage Kvalbein & Iver Kleive - Til Trøst - Meditasjoner for cello og piano - 2008/2017 (Classical) Vi$itReal 805 MB
Многоканальная музыка классика и классика в современной обработке [SACD-R][OF] Alan Civil, Sir Neville Marriner, Academy St. Martin in The Fields - Mozart: The 4 Horn Concertos - 1972/2002 (Orchestral, Horn) RelizMAN 3.22 GB
Hi-Res stereo классика и классика в современной обработке [SACD-R][OF] Alban Berg & Bela Bartok – Violin Concertos (Isaac Stern, New York Philharmonic, Leonard Bernstein) - 2013 (Classical/Orchestral/Violin) Vi$itReal 1.09 GB
Display posts:    

Current time is: 01-Apr 15:03

All times are UTC + 3



You cannot post new topics in this forum
You cannot reply to topics in this forum
You cannot edit your posts in this forum
You cannot delete your posts in this forum
You cannot vote in polls in this forum
You cannot attach files in this forum
You can download files in this forum